  0
SECTION
  2
HEADER
  9
$ACADVER
  1
AC1027
  9
$ACADMAINTVER
 70
     8
  9
$DWGCODEPAGE
  3
ANSI_1252
  9
$AUTHOR
  1
Willi
  9
$REQUIREDVERSIONS
160
                 0
  9
$LASTSAVEDBY
  1
Willi
  9
$CUSTOMPROPERTYTAG
  1
Vero UK Ltd.
  9
$CUSTOMPROPERTY
  1
VISI 21.1
  9
$INSBASE
 10
0.0
 20
0.0
 30
0.0
  9
$EXTMIN
 10
0.0
 20
0.0
 30
0.0
  9
$EXTMAX
 10
151.4009234743087
 20
198.0000000000001
 30
0.0
  9
$LIMMIN
 10
0.0
 20
0.0
  9
$LIMMAX
 10
420.0
 20
297.0
  9
$ORTHOMODE
 70
     0
  9
$REGENMODE
 70
     1
  9
$FILLMODE
 70
     1
  9
$QTEXTMODE
 70
     0
  9
$MIRRTEXT
 70
     1
  9
$LTSCALE
 40
1.0
  9
$ATTMODE
 70
     1
  9
$TEXTSIZE
 40
2.5
  9
$TRACEWID
 40
1.0
  9
$TEXTSTYLE
  7
Standard
  9
$CLAYER
  8
LAYER0
  9
$CELTYPE
  6
ByLayer
  9
$CECOLOR
 62
   256
  9
$CELTSCALE
 40
1.0
  9
$DISPSILH
 70
     0
  9
$DIMSCALE
 40
1.0
  9
$DIMASZ
 40
2.5
  9
$DIMEXO
 40
0.625
  9
$DIMDLI
 40
3.75
  9
$DIMRND
 40
0.0
  9
$DIMDLE
 40
0.0
  9
$DIMEXE
 40
1.25
  9
$DIMTP
 40
0.0
  9
$DIMTM
 40
0.0
  9
$DIMTXT
 40
2.5
  9
$DIMCEN
 40
2.5
  9
$DIMTSZ
 40
0.0
  9
$DIMTOL
 70
     0
  9
$DIMLIM
 70
     0
  9
$DIMTIH
 70
     0
  9
$DIMTOH
 70
     0
  9
$DIMSE1
 70
     0
  9
$DIMSE2
 70
     0
  9
$DIMTAD
 70
     1
  9
$DIMZIN
 70
     8
  9
$DIMBLK
  1

  9
$DIMASO
 70
     1
  9
$DIMSHO
 70
     1
  9
$DIMPOST
  1

  9
$DIMAPOST
  1

  9
$DIMALT
 70
     0
  9
$DIMALTD
 70
     3
  9
$DIMALTF
 40
0.03937007874016
  9
$DIMLFAC
 40
1.0
  9
$DIMTOFL
 70
     1
  9
$DIMTVP
 40
0.0
  9
$DIMTIX
 70
     0
  9
$DIMSOXD
 70
     0
  9
$DIMSAH
 70
     0
  9
$DIMBLK1
  1

  9
$DIMBLK2
  1

  9
$DIMSTYLE
  2
ISO-25
  9
$DIMCLRD
 70
     0
  9
$DIMCLRE
 70
     0
  9
$DIMCLRT
 70
     0
  9
$DIMTFAC
 40
1.0
  9
$DIMGAP
 40
0.625
  9
$DIMJUST
 70
     0
  9
$DIMSD1
 70
     0
  9
$DIMSD2
 70
     0
  9
$DIMTOLJ
 70
     0
  9
$DIMTZIN
 70
     8
  9
$DIMALTZ
 70
     0
  9
$DIMALTTZ
 70
     0
  9
$DIMUPT
 70
     0
  9
$DIMDEC
 70
     2
  9
$DIMTDEC
 70
     2
  9
$DIMALTU
 70
     2
  9
$DIMALTTD
 70
     3
  9
$DIMTXSTY
  7
Standard
  9
$DIMAUNIT
 70
     0
  9
$DIMADEC
 70
     0
  9
$DIMALTRND
 40
0.0
  9
$DIMAZIN
 70
     0
  9
$DIMDSEP
 70
    44
  9
$DIMATFIT
 70
     3
  9
$DIMFRAC
 70
     0
  9
$DIMLDRBLK
  1

  9
$DIMLUNIT
 70
     2
  9
$DIMLWD
 70
    -2
  9
$DIMLWE
 70
    -2
  9
$DIMTMOVE
 70
     0
  9
$DIMFXL
 40
1.0
  9
$DIMFXLON
 70
     0
  9
$DIMJOGANG
 40
0.7853981633974483
  9
$DIMTFILL
 70
     0
  9
$DIMTFILLCLR
 70
     0
  9
$DIMARCSYM
 70
     0
  9
$DIMLTYPE
  6

  9
$DIMLTEX1
  6

  9
$DIMLTEX2
  6

  9
$DIMTXTDIRECTION
 70
     0
  9
$LUNITS
 70
     2
  9
$LUPREC
 70
     4
  9
$SKETCHINC
 40
1.0
  9
$FILLETRAD
 40
10.0
  9
$AUNITS
 70
     0
  9
$AUPREC
 70
     0
  9
$MENU
  1
.
  9
$ELEVATION
 40
0.0
  9
$PELEVATION
 40
0.0
  9
$THICKNESS
 40
0.0
  9
$LIMCHECK
 70
     0
  9
$CHAMFERA
 40
0.0
  9
$CHAMFERB
 40
0.0
  9
$CHAMFERC
 40
0.0
  9
$CHAMFERD
 40
0.0
  9
$SKPOLY
 70
     0
  9
$TDCREATE
 40
2457896.808534595
  9
$TDUCREATE
 40
2457896.725201262
  9
$TDUPDATE
 40
2457896.808534861
  9
$TDUUPDATE
 40
2457896.725201528
  9
$TDINDWG
 40
0.0000000116
  9
$TDUSRTIMER
 40
0.0000000116
  9
$USRTIMER
 70
     1
  9
$ANGBASE
 50
0.0
  9
$ANGDIR
 70
     0
  9
$PDMODE
 70
     2
  9
$PDSIZE
 40
-0.05
  9
$PLINEWID
 40
0.0
  9
$SPLFRAME
 70
     0
  9
$SPLINETYPE
 70
     6
  9
$SPLINESEGS
 70
     8
  9
$HANDSEED
  5
297
  9
$SURFTAB1
 70
     6
  9
$SURFTAB2
 70
     6
  9
$SURFTYPE
 70
     6
  9
$SURFU
 70
     6
  9
$SURFV
 70
     6
  9
$UCSBASE
  2

  9
$UCSNAME
  2

  9
$UCSORG
 10
0.0
 20
0.0
 30
0.0
  9
$UCSXDIR
 10
1.0
 20
0.0
 30
0.0
  9
$UCSYDIR
 10
0.0
 20
1.0
 30
0.0
  9
$UCSORTHOREF
  2

  9
$UCSORTHOVIEW
 70
     0
  9
$UCSORGTOP
 10
0.0
 20
0.0
 30
0.0
  9
$UCSORGBOTTOM
 10
0.0
 20
0.0
 30
0.0
  9
$UCSORGLEFT
 10
0.0
 20
0.0
 30
0.0
  9
$UCSORGRIGHT
 10
0.0
 20
0.0
 30
0.0
  9
$UCSORGFRONT
 10
0.0
 20
0.0
 30
0.0
  9
$UCSORGBACK
 10
0.0
 20
0.0
 30
0.0
  9
$PUCSBASE
  2

  9
$PUCSNAME
  2

  9
$PUCSORG
 10
0.0
 20
0.0
 30
0.0
  9
$PUCSXDIR
 10
1.0
 20
0.0
 30
0.0
  9
$PUCSYDIR
 10
0.0
 20
1.0
 30
0.0
  9
$PUCSORTHOREF
  2

  9
$PUCSORTHOVIEW
 70
     0
  9
$PUCSORGTOP
 10
0.0
 20
0.0
 30
0.0
  9
$PUCSORGBOTTOM
 10
0.0
 20
0.0
 30
0.0
  9
$PUCSORGLEFT
 10
0.0
 20
0.0
 30
0.0
  9
$PUCSORGRIGHT
 10
0.0
 20
0.0
 30
0.0
  9
$PUCSORGFRONT
 10
0.0
 20
0.0
 30
0.0
  9
$PUCSORGBACK
 10
0.0
 20
0.0
 30
0.0
  9
$USERI1
 70
     0
  9
$USERI2
 70
     0
  9
$USERI3
 70
     0
  9
$USERI4
 70
     0
  9
$USERI5
 70
     0
  9
$USERR1
 40
0.0
  9
$USERR2
 40
0.0
  9
$USERR3
 40
0.0
  9
$USERR4
 40
0.0
  9
$USERR5
 40
0.0
  9
$WORLDVIEW
 70
     1
  9
$SHADEDGE
 70
     3
  9
$SHADEDIF
 70
    70
  9
$TILEMODE
 70
     1
  9
$MAXACTVP
 70
    64
  9
$PINSBASE
 10
0.0
 20
0.0
 30
0.0
  9
$PLIMCHECK
 70
     0
  9
$PEXTMIN
 10
1.000000000000000E+20
 20
1.000000000000000E+20
 30
1.000000000000000E+20
  9
$PEXTMAX
 10
-1.000000000000000E+20
 20
-1.000000000000000E+20
 30
-1.000000000000000E+20
  9
$PLIMMIN
 10
0.0
 20
0.0
  9
$PLIMMAX
 10
420.0
 20
297.0
  9
$UNITMODE
 70
     0
  9
$VISRETAIN
 70
     1
  9
$PLINEGEN
 70
     1
  9
$PSLTSCALE
 70
     1
  9
$TREEDEPTH
 70
  3020
  9
$CMLSTYLE
  2
Standard
  9
$CMLJUST
 70
     0
  9
$CMLSCALE
 40
20.0
  9
$PROXYGRAPHICS
 70
     1
  9
$MEASUREMENT
 70
     1
  9
$CELWEIGHT
370
    -1
  9
$ENDCAPS
280
     0
  9
$JOINSTYLE
280
     0
  9
$LWDISPLAY
290
     0
  9
$INSUNITS
 70
     4
  9
$HYPERLINKBASE
  1

  9
$STYLESHEET
  1

  9
$XEDIT
290
     1
  9
$CEPSNTYPE
380
     0
  9
$PSTYLEMODE
290
     0
  9
$FINGERPRINTGUID
  2
{B0C148C4-A7A7-4877-BDBC-E6DA8C1C363F}
  9
$VERSIONGUID
  2
{FAEB1C32-E019-11D5-929B-00C0DF256EC4}
  9
$EXTNAMES
290
     1
  9
$PSVPSCALE
 40
0.0
  9
$OLESTARTUP
290
     0
  9
$SORTENTS
280
   127
  9
$INDEXCTL
280
     0
  9
$HIDETEXT
280
     1
  9
$XCLIPFRAME
280
     2
  9
$HALOGAP
280
     0
  9
$OBSCOLOR
 70
   257
  9
$OBSLTYPE
280
     0
  9
$INTERSECTIONDISPLAY
280
     0
  9
$INTERSECTIONCOLOR
 70
   257
  9
$DIMASSOC
280
     2
  9
$PROJECTNAME
  1

  9
$CAMERADISPLAY
290
     0
  9
$LENSLENGTH
 40
50.0
  9
$CAMERAHEIGHT
 40
0.0
  9
$STEPSPERSEC
 40
2.0
  9
$STEPSIZE
 40
6.0
  9
$3DDWFPREC
 40
2.0
  9
$PSOLWIDTH
 40
5.0
  9
$PSOLHEIGHT
 40
80.0
  9
$LOFTANG1
 40
1.570796326794897
  9
$LOFTANG2
 40
1.570796326794897
  9
$LOFTMAG1
 40
0.0
  9
$LOFTMAG2
 40
0.0
  9
$LOFTPARAM
 70
     7
  9
$LOFTNORMALS
280
     1
  9
$LATITUDE
 40
37.795
  9
$LONGITUDE
 40
-122.394
  9
$NORTHDIRECTION
 40
0.0
  9
$TIMEZONE
 70
 -8000
  9
$LIGHTGLYPHDISPLAY
280
     1
  9
$TILEMODELIGHTSYNCH
280
     1
  9
$CMATERIAL
347
44
  9
$SOLIDHIST
280
     0
  9
$SHOWHIST
280
     1
  9
$DWFFRAME
280
     2
  9
$DGNFRAME
280
     2
  9
$REALWORLDSCALE
290
     1
  9
$INTERFERECOLOR
 62
   256
  9
$CSHADOW
280
     0
  9
$SHADOWPLANELOCATION
 40
0.0
  0
ENDSEC
  0
SECTION
  2
CLASSES
  0
CLASS
  1
ACDBDICTIONARYWDFLT
  2
AcDbDictionaryWithDefault
  3
ObjectDBX Classes
 90
        0
 91
        4
280
     0
281
     0
  0
CLASS
  1
VISUALSTYLE
  2
AcDbVisualStyle
  3
ObjectDBX Classes
 90
     4095
 91
        4
280
     0
281
     0
  0
CLASS
  1
MATERIAL
  2
AcDbMaterial
  3
ObjectDBX Classes
 90
     1153
 91
        4
280
     0
281
     0
  0
CLASS
  1
SCALE
  2
AcDbScale
  3
ObjectDBX Classes
 90
     1153
 91
        4
280
     0
281
     0
  0
CLASS
  1
TABLESTYLE
  2
AcDbTableStyle
  3
ObjectDBX Classes
 90
     4095
 91
        4
280
     0
281
     0
  0
CLASS
  1
MLEADERSTYLE
  2
AcDbMLeaderStyle
  3
ACDB_MLEADERSTYLE_CLASS
 90
     4095
 91
        4
280
     0
281
     0
  0
CLASS
  1
SUN
  2
AcDbSun
  3
SCENEOE
 90
     1153
 91
        4
280
     0
281
     0
  0
CLASS
  1
DICTIONARYVAR
  2
AcDbDictionaryVar
  3
ObjectDBX Classes
 90
        0
 91
        4
280
     0
281
     0
  0
CLASS
  1
CELLSTYLEMAP
  2
AcDbCellStyleMap
  3
ObjectDBX Classes
 90
     1152
 91
        4
280
     0
281
     0
  0
ENDSEC
  0
SECTION
  2
TABLES
  0
TABLE
  2
VPORT
  5
8
330
0
100
AcDbSymbolTable
 70
     1
  0
VPORT
  5
29
330
8
100
AcDbSymbolTableRecord
100
AcDbViewportTableRecord
  2
*Active
 70
     0
 10
0.0
 20
0.0
 11
1.0
 21
1.0
 12
76.068509547156
 22
99.00000000000003
 13
0.0
 23
0.0
 14
10.0
 24
10.0
 15
10.0
 25
10.0
 16
0.0
 26
0.0
 36
1.0
 17
0.0
 27
0.0
 37
0.0
 40
201.9600000000001
 41
0.7683687833046053
 42
50.0
 43
0.0
 44
0.0
 50
0.0
 51
0.0
 71
     0
 72
   100
 73
     1
 74
     3
 75
     0
 76
     0
 77
     0
 78
     0
281
     0
 65
     1
110
0.0
120
0.0
130
0.0
111
1.0
121
0.0
131
0.0
112
0.0
122
1.0
132
0.0
 79
     0
146
0.0
348
2F
 60
     3
 61
     5
292
     1
282
     1
141
0.0
142
0.0
 63
   250
361
6D
  0
ENDTAB
  0
TABLE
  2
LTYPE
  5
5
330
0
100
AcDbSymbolTable
 70
     5
  0
LTYPE
  5
14
330
5
100
AcDbSymbolTableRecord
100
AcDbLinetypeTableRecord
  2
ByBlock
 70
     0
  3

 72
    65
 73
     0
 40
0.0
  0
LTYPE
  5
15
330
5
100
AcDbSymbolTableRecord
100
AcDbLinetypeTableRecord
  2
ByLayer
 70
     0
  3

 72
    65
 73
     0
 40
0.0
  0
LTYPE
  5
16
330
5
100
AcDbSymbolTableRecord
100
AcDbLinetypeTableRecord
  2
Continuous
 70
     0
  3
Solid line
 72
    65
 73
     0
 40
0.0
  0
LTYPE
  5
EC
330
5
100
AcDbSymbolTableRecord
100
AcDbLinetypeTableRecord
  2
HIDDEN
 70
     0
  3
____  ____   ____  ____
 72
    65
 73
     2
 40
10.0
 49
6.667
 74
     0
 49
-3.333
 74
     0
  0
LTYPE
  5
ED
330
5
100
AcDbSymbolTableRecord
100
AcDbLinetypeTableRecord
  2
HIDDEN2
 70
     0
  3
__ __ __ __
 72
    65
 73
     4
 40
10.0
 49
3.333
 74
     0
 49
-1.666
 74
     0
 49
3.333
 74
     0
 49
-1.666
 74
     0
  0
LTYPE
  5
EE
330
5
100
AcDbSymbolTableRecord
100
AcDbLinetypeTableRecord
  2
CENTER
 70
     0
  3
_____ _ _____ _ _____ _
 72
    65
 73
     4
 40
10.0
 49
6.25
 74
     0
 49
-1.25
 74
     0
 49
1.25
 74
     0
 49
-1.25
 74
     0
  0
LTYPE
  5
EF
330
5
100
AcDbSymbolTableRecord
100
AcDbLinetypeTableRecord
  2
PHANTOM
 70
     0
  3
____ _ _ _____ _ _
 72
    65
 73
     6
 40
10.0
 49
5.0
 74
     0
 49
-1.0
 74
     0
 49
1.0
 74
     0
 49
-1.0
 74
     0
 49
1.0
 74
     0
 49
-1.0
 74
     0
  0
ENDTAB
  0
TABLE
  2
LAYER
  5
2
330
0
100
AcDbSymbolTable
 70
     4
  0
LAYER
  5
10
330
2
100
AcDbSymbolTableRecord
100
AcDbLayerTableRecord
  2
0
 70
     0
 62
     7
  6
Continuous
370
    -3
390
F
347
46
348
0
  0
LAYER
  5
E9
330
2
100
AcDbSymbolTableRecord
100
AcDbLayerTableRecord
  2
LAYER0
 70
     0
 62
     7
  6
Continuous
370
    -3
390
F
347
46
348
0
  0
LAYER
  5
EA
330
2
100
AcDbSymbolTableRecord
100
AcDbLayerTableRecord
  2
LAYER1
 70
     0
 62
     7
  6
Continuous
370
    -3
390
F
347
46
348
0
  0
LAYER
  5
EB
330
2
100
AcDbSymbolTableRecord
100
AcDbLayerTableRecord
  2
1
 70
     0
 62
     7
  6
Continuous
370
    -3
390
F
347
46
348
0
  0
ENDTAB
  0
TABLE
  2
STYLE
  5
3
330
0
100
AcDbSymbolTable
 70
     2
  0
STYLE
  5
11
330
3
100
AcDbSymbolTableRecord
100
AcDbTextStyleTableRecord
  2
Standard
 70
     0
 40
0.0
 41
1.0
 50
0.0
 71
     0
 42
2.5
  3
txt
  4

  0
STYLE
  5
C9
330
3
100
AcDbSymbolTableRecord
100
AcDbTextStyleTableRecord
  2
VISI1-courier new
 70
     0
 40
0.0
 41
1.0
 50
0.0
 71
     0
 42
2.5
  3

  4

1001
ACAD
1000
courier new
1071
       18
  0
ENDTAB
  0
TABLE
  2
VIEW
  5
6
330
0
100
AcDbSymbolTable
 70
     0
  0
ENDTAB
  0
TABLE
  2
UCS
  5
7
330
0
100
AcDbSymbolTable
 70
     0
  0
ENDTAB
  0
TABLE
  2
APPID
  5
9
330
0
100
AcDbSymbolTable
 70
     1
  0
APPID
  5
12
330
9
100
AcDbSymbolTableRecord
100
AcDbRegAppTableRecord
  2
ACAD
 70
     0
  0
ENDTAB
  0
TABLE
  2
DIMSTYLE
  5
A
330
0
100
AcDbSymbolTable
 70
     2
100
AcDbDimStyleTable
  0
DIMSTYLE
105
27
330
A
100
AcDbSymbolTableRecord
100
AcDbDimStyleTableRecord
  2
ISO-25
 70
     0
 41
2.5
 42
0.625
 43
3.75
 44
1.25
 73
     0
 74
     0
 77
     1
 78
     8
140
2.5
141
2.5
143
0.03937007874016
147
0.625
171
     3
172
     1
178
     0
271
     2
272
     2
274
     3
278
    44
283
     0
284
     8
340
11
  0
DIMSTYLE
105
CA
102
{ACAD_REACTORS
330
27A
330
284
102
}
330
A
100
AcDbSymbolTableRecord
100
AcDbDimStyleTableRecord
  2
VisiStyle
 70
     0
 41
2.835640909808854
 42
0.0
 43
3.75
 44
3.0
 73
     0
 74
     0
 77
     1
 78
     8
 79
     2
140
4.0
141
0.0
143
0.0393700787401575
146
0.8
147
1.5
171
     3
172
     1
173
     1
271
     2
178
     7
179
     3
271
     2
272
     2
274
     3
275
     1
284
     4
285
     8
286
     4
340
C9
343
74
344
74
  0
ENDTAB
  0
TABLE
  2
BLOCK_RECORD
  5
1
330
0
100
AcDbSymbolTable
 70
    22
  0
BLOCK_RECORD
  5
1F
330
1
100
AcDbSymbolTableRecord
100
AcDbBlockTableRecord
  2
*Model_Space
340
22
 70
     0
280
     1
281
     0
  0
BLOCK_RECORD
  5
1B
330
1
100
AcDbSymbolTableRecord
100
AcDbBlockTableRecord
  2
*Paper_Space
340
1E
 70
     0
280
     1
281
     0
  0
BLOCK_RECORD
  5
23
330
1
100
AcDbSymbolTableRecord
100
AcDbBlockTableRecord
  2
*Paper_Space0
340
26
 70
     0
280
     1
281
     0
  0
BLOCK_RECORD
  5
6E
330
1
100
AcDbSymbolTableRecord
100
AcDbBlockTableRecord
  2
ArrowheadOpen
340
0
 70
     0
280
     1
281
     0
  0
BLOCK_RECORD
  5
74
330
1
100
AcDbSymbolTableRecord
100
AcDbBlockTableRecord
  2
ArrowheadClosed
340
0
102
{BLKREFS
331
27F
331
280
331
289
331
28A
102
}
 70
     0
280
     1
281
     0
  0
BLOCK_RECORD
  5
7A
330
1
100
AcDbSymbolTableRecord
100
AcDbBlockTableRecord
  2
ArrowheadOpen2
340
0
 70
     0
280
     1
281
     0
  0
BLOCK_RECORD
  5
82
330
1
100
AcDbSymbolTableRecord
100
AcDbBlockTableRecord
  2
ArrowheadClosed2
340
0
 70
     0
280
     1
281
     0
  0
BLOCK_RECORD
  5
8C
330
1
100
AcDbSymbolTableRecord
100
AcDbBlockTableRecord
  2
ArrowheadBox
340
0
 70
     0
280
     1
281
     0
  0
BLOCK_RECORD
  5
94
330
1
100
AcDbSymbolTableRecord
100
AcDbBlockTableRecord
  2
ArrowheadCircle
340
0
 70
     0
280
     1
281
     0
  0
BLOCK_RECORD
  5
99
330
1
100
AcDbSymbolTableRecord
100
AcDbBlockTableRecord
  2
ArrowheadArchitect
340
0
 70
     0
280
     1
281
     0
  0
BLOCK_RECORD
  5
9E
330
1
100
AcDbSymbolTableRecord
100
AcDbBlockTableRecord
  2
ArrowheadArchitect2
340
0
 70
     0
280
     1
281
     0
  0
BLOCK_RECORD
  5
A4
330
1
100
AcDbSymbolTableRecord
100
AcDbBlockTableRecord
  2
ArrowheadSection
340
0
 70
     0
280
     1
281
     0
  0
BLOCK_RECORD
  5
AC
330
1
100
AcDbSymbolTableRecord
100
AcDbBlockTableRecord
  2
ArrowheadSectionClosed
340
0
 70
     0
280
     1
281
     0
  0
BLOCK_RECORD
  5
B8
330
1
100
AcDbSymbolTableRecord
100
AcDbBlockTableRecord
  2
ArrowheadSectionOpen
340
0
 70
     0
280
     1
281
     0
  0
BLOCK_RECORD
  5
C3
330
1
100
AcDbSymbolTableRecord
100
AcDbBlockTableRecord
  2
ArrowheadTriangle
340
0
 70
     0
280
     1
281
     0
  0
BLOCK_RECORD
  5
CB
330
1
100
AcDbSymbolTableRecord
100
AcDbBlockTableRecord
  2
BalloonBlockOneText
340
0
 70
     0
280
     1
281
     0
  0
BLOCK_RECORD
  5
D0
330
1
100
AcDbSymbolTableRecord
100
AcDbBlockTableRecord
  2
BalloonBlockTwoText
340
0
 70
     0
280
     1
281
     0
  0
BLOCK_RECORD
  5
D7
330
1
100
AcDbSymbolTableRecord
100
AcDbBlockTableRecord
  2
BalloonBlockThreeText
340
0
 70
     0
280
     1
281
     0
  0
BLOCK_RECORD
  5
E0
330
1
100
AcDbSymbolTableRecord
100
AcDbBlockTableRecord
  2
BalloonBlockRect
340
0
 70
     0
280
     1
281
     0
  0
BLOCK_RECORD
  5
F0
330
1
100
AcDbSymbolTableRecord
100
AcDbBlockTableRecord
  2
Group 1
340
0
102
{BLKREFS
331
231
102
}
 70
     0
280
     1
281
     0
  0
BLOCK_RECORD
  5
232
330
1
100
AcDbSymbolTableRecord
100
AcDbBlockTableRecord
  2
Plotview 2
340
0
102
{BLKREFS
331
247
102
}
 70
     0
280
     1
281
     0
  0
BLOCK_RECORD
  5
248
330
1
100
AcDbSymbolTableRecord
100
AcDbBlockTableRecord
  2
Plotview 3
340
0
102
{BLKREFS
331
279
102
}
 70
     0
280
     1
281
     0
  0
BLOCK_RECORD
  5
27B
330
1
100
AcDbSymbolTableRecord
100
AcDbBlockTableRecord
  2
*D20
340
0
 70
     0
280
     1
281
     0
  0
BLOCK_RECORD
  5
285
330
1
100
AcDbSymbolTableRecord
100
AcDbBlockTableRecord
  2
*D21
340
0
 70
     0
280
     1
281
     0
  0
ENDTAB
  0
ENDSEC
  0
SECTION
  2
BLOCKS
  0
BLOCK
  5
20
330
1F
100
AcDbEntity
  8
0
100
AcDbBlockBegin
  2
*Model_Space
 70
     0
 10
0.0
 20
0.0
 30
0.0
  3
*Model_Space
  1

  0
ENDBLK
  5
21
330
1F
100
AcDbEntity
  8
0
100
AcDbBlockEnd
  0
BLOCK
  5
1C
330
1B
100
AcDbEntity
 67
     1
  8
0
100
AcDbBlockBegin
  2
*Paper_Space
 70
     0
 10
0.0
 20
0.0
 30
0.0
  3
*Paper_Space
  1

  0
ENDBLK
  5
1D
330
1B
100
AcDbEntity
 67
     1
  8
0
100
AcDbBlockEnd
  0
BLOCK
  5
24
330
23
100
AcDbEntity
  8
0
100
AcDbBlockBegin
  2
*Paper_Space0
 70
     0
 10
0.0
 20
0.0
 30
0.0
  3
*Paper_Space0
  1

  0
ENDBLK
  5
25
330
23
100
AcDbEntity
  8
0
100
AcDbBlockEnd
  0
BLOCK
  5
6F
330
6E
100
AcDbEntity
  8
0
100
AcDbBlockBegin
  2
ArrowheadOpen
 70
     0
 10
0.0
 20
0.0
 30
0.0
  3
ArrowheadOpen
  1

  0
LINE
  5
71
330
6E
100
AcDbEntity
  8
0
 62
     0
100
AcDbLine
 10
0.0
 20
0.0
 30
0.0
 11
-1.0
 21
0.176326980708465
 31
0.0
  0
LINE
  5
72
330
6E
100
AcDbEntity
  8
0
 62
     0
100
AcDbLine
 10
0.0
 20
0.0
 30
0.0
 11
-1.0
 21
-0.176326980708465
 31
0.0
  0
LINE
  5
73
330
6E
100
AcDbEntity
  8
0
 62
     0
100
AcDbLine
 10
0.0
 20
0.0
 30
0.0
 11
-1.0
 21
0.0
 31
0.0
  0
ENDBLK
  5
70
330
6E
100
AcDbEntity
  8
0
100
AcDbBlockEnd
  0
BLOCK
  5
75
330
74
100
AcDbEntity
  8
0
100
AcDbBlockBegin
  2
ArrowheadClosed
 70
     0
 10
0.0
 20
0.0
 30
0.0
  3
ArrowheadClosed
  1

  0
LINE
  5
77
330
74
100
AcDbEntity
  8
0
 62
     0
100
AcDbLine
 10
0.0
 20
0.0
 30
0.0
 11
-1.0
 21
0.176326980708465
 31
0.0
  0
LINE
  5
78
330
74
100
AcDbEntity
  8
0
 62
     0
100
AcDbLine
 10
-1.0
 20
0.176326980708465
 30
0.0
 11
-1.0
 21
-0.176326980708465
 31
0.0
  0
LINE
  5
79
330
74
100
AcDbEntity
  8
0
 62
     0
100
AcDbLine
 10
-1.0
 20
-0.176326980708465
 30
0.0
 11
0.0
 21
0.0
 31
0.0
  0
ENDBLK
  5
76
330
74
100
AcDbEntity
  8
0
100
AcDbBlockEnd
  0
BLOCK
  5
7B
330
7A
100
AcDbEntity
  8
0
100
AcDbBlockBegin
  2
ArrowheadOpen2
 70
     0
 10
0.0
 20
0.0
 30
0.0
  3
ArrowheadOpen2
  1

  0
LINE
  5
7D
330
7A
100
AcDbEntity
  8
0
 62
     0
100
AcDbLine
 10
0.0
 20
0.0
 30
0.0
 11
-0.5
 21
0.0881634903542325
 31
0.0
  0
LINE
  5
7E
330
7A
100
AcDbEntity
  8
0
 62
     0
100
AcDbLine
 10
0.0
 20
0.0
 30
0.0
 11
-0.5
 21
-0.0881634903542325
 31
0.0
  0
LINE
  5
7F
330
7A
100
AcDbEntity
  8
0
 62
     0
100
AcDbLine
 10
-0.5
 20
0.0
 30
0.0
 11
-1.0
 21
0.0881634903542325
 31
0.0
  0
LINE
  5
80
330
7A
100
AcDbEntity
  8
0
 62
     0
100
AcDbLine
 10
-0.5
 20
0.0
 30
0.0
 11
-1.0
 21
-0.0881634903542325
 31
0.0
  0
LINE
  5
81
330
7A
100
AcDbEntity
  8
0
 62
     0
100
AcDbLine
 10
0.0
 20
0.0
 30
0.0
 11
-1.0
 21
0.0
 31
0.0
  0
ENDBLK
  5
7C
330
7A
100
AcDbEntity
  8
0
100
AcDbBlockEnd
  0
BLOCK
  5
83
330
82
100
AcDbEntity
  8
0
100
AcDbBlockBegin
  2
ArrowheadClosed2
 70
     0
 10
0.0
 20
0.0
 30
0.0
  3
ArrowheadClosed2
  1

  0
LINE
  5
85
330
82
100
AcDbEntity
  8
0
 62
     0
100
AcDbLine
 10
0.0
 20
0.0
 30
0.0
 11
-0.5
 21
0.0881634903542325
 31
0.0
  0
LINE
  5
86
330
82
100
AcDbEntity
  8
0
 62
     0
100
AcDbLine
 10
0.0
 20
0.0
 30
0.0
 11
-0.5
 21
-0.0881634903542325
 31
0.0
  0
LINE
  5
87
330
82
100
AcDbEntity
  8
0
 62
     0
100
AcDbLine
 10
-0.5
 20
0.0881634903542325
 30
0.0
 11
-0.5
 21
-0.0881634903542325
 31
0.0
  0
LINE
  5
88
330
82
100
AcDbEntity
  8
0
 62
     0
100
AcDbLine
 10
-0.5
 20
0.0
 30
0.0
 11
-1.0
 21
0.0881634903542325
 31
0.0
  0
LINE
  5
89
330
82
100
AcDbEntity
  8
0
 62
     0
100
AcDbLine
 10
-0.5
 20
0.0
 30
0.0
 11
-1.0
 21
-0.0881634903542325
 31
0.0
  0
LINE
  5
8A
330
82
100
AcDbEntity
  8
0
 62
     0
100
AcDbLine
 10
-1.0
 20
0.0881634903542325
 30
0.0
 11
-1.0
 21
-0.0881634903542325
 31
0.0
  0
LINE
  5
8B
330
82
100
AcDbEntity
  8
0
 62
     0
100
AcDbLine
 10
0.0
 20
0.0
 30
0.0
 11
-1.0
 21
0.0
 31
0.0
  0
ENDBLK
  5
84
330
82
100
AcDbEntity
  8
0
100
AcDbBlockEnd
  0
BLOCK
  5
8D
330
8C
100
AcDbEntity
  8
0
100
AcDbBlockBegin
  2
ArrowheadBox
 70
     0
 10
0.0
 20
0.0
 30
0.0
  3
ArrowheadBox
  1

  0
LINE
  5
8F
330
8C
100
AcDbEntity
  8
0
 62
     0
100
AcDbLine
 10
-0.5
 20
-0.5
 30
0.0
 11
0.5
 21
-0.5
 31
0.0
  0
LINE
  5
90
330
8C
100
AcDbEntity
  8
0
 62
     0
100
AcDbLine
 10
0.5
 20
-0.5
 30
0.0
 11
0.5
 21
0.5
 31
0.0
  0
LINE
  5
91
330
8C
100
AcDbEntity
  8
0
 62
     0
100
AcDbLine
 10
0.5
 20
0.5
 30
0.0
 11
-0.5
 21
0.5
 31
0.0
  0
LINE
  5
92
330
8C
100
AcDbEntity
  8
0
 62
     0
100
AcDbLine
 10
-0.5
 20
0.5
 30
0.0
 11
-0.5
 21
-0.5
 31
0.0
  0
LINE
  5
93
330
8C
100
AcDbEntity
  8
0
 62
     0
100
AcDbLine
 10
-0.5
 20
0.0
 30
0.0
 11
-1.0
 21
0.0
 31
0.0
  0
ENDBLK
  5
8E
330
8C
100
AcDbEntity
  8
0
100
AcDbBlockEnd
  0
BLOCK
  5
95
330
94
100
AcDbEntity
  8
0
100
AcDbBlockBegin
  2
ArrowheadCircle
 70
     0
 10
0.0
 20
0.0
 30
0.0
  3
ArrowheadCircle
  1

  0
LINE
  5
97
330
94
100
AcDbEntity
  8
0
 62
     0
100
AcDbLine
 10
-0.5
 20
0.0
 30
0.0
 11
-1.0
 21
0.0
 31
0.0
  0
CIRCLE
  5
98
330
94
100
AcDbEntity
  8
0
 62
     0
100
AcDbCircle
 10
0.0
 20
0.0
 30
0.0
 40
0.5
  0
ENDBLK
  5
96
330
94
100
AcDbEntity
  8
0
100
AcDbBlockEnd
  0
BLOCK
  5
9A
330
99
100
AcDbEntity
  8
0
100
AcDbBlockBegin
  2
ArrowheadArchitect
 70
     0
 10
0.0
 20
0.0
 30
0.0
  3
ArrowheadArchitect
  1

  0
LINE
  5
9C
330
99
100
AcDbEntity
  8
0
 62
     0
100
AcDbLine
 10
-0.5
 20
0.5
 30
0.0
 11
0.5
 21
-0.5
 31
0.0
  0
LINE
  5
9D
330
99
100
AcDbEntity
  8
0
 62
     0
100
AcDbLine
 10
0.0
 20
0.0
 30
0.0
 11
-1.0
 21
0.0
 31
0.0
  0
ENDBLK
  5
9B
330
99
100
AcDbEntity
  8
0
100
AcDbBlockEnd
  0
BLOCK
  5
9F
330
9E
100
AcDbEntity
  8
0
100
AcDbBlockBegin
  2
ArrowheadArchitect2
 70
     0
 10
0.0
 20
0.0
 30
0.0
  3
ArrowheadArchitect2
  1

  0
LINE
  5
A1
330
9E
100
AcDbEntity
  8
0
 62
     0
100
AcDbLine
 10
-0.5
 20
0.5
 30
0.0
 11
0.5
 21
-0.5
 31
0.0
  0
LINE
  5
A2
330
9E
100
AcDbEntity
  8
0
 62
     0
100
AcDbLine
 10
0.5
 20
0.5
 30
0.0
 11
-0.5
 21
-0.5
 31
0.0
  0
LINE
  5
A3
330
9E
100
AcDbEntity
  8
0
 62
     0
100
AcDbLine
 10
0.0
 20
0.0
 30
0.0
 11
-1.0
 21
0.0
 31
0.0
  0
ENDBLK
  5
A0
330
9E
100
AcDbEntity
  8
0
100
AcDbBlockEnd
  0
BLOCK
  5
A5
330
A4
100
AcDbEntity
  8
0
100
AcDbBlockBegin
  2
ArrowheadSection
 70
     0
 10
0.0
 20
0.0
 30
0.0
  3
ArrowheadSection
  1

  0
LINE
  5
A7
330
A4
100
AcDbEntity
  8
0
 62
     0
100
AcDbLine
 10
0.0
 20
0.0
 30
0.0
 11
-1.0
 21
0.0
 31
0.0
  0
LINE
  5
A8
330
A4
100
AcDbEntity
  8
0
 62
     0
100
AcDbLine
 10
0.0
 20
0.05
 30
0.0
 11
-1.0
 21
0.05
 31
0.0
  0
LINE
  5
A9
330
A4
100
AcDbEntity
  8
0
 62
     0
100
AcDbLine
 10
0.0
 20
0.1
 30
0.0
 11
-1.0
 21
0.1
 31
0.0
  0
LINE
  5
AA
330
A4
100
AcDbEntity
  8
0
 62
     0
100
AcDbLine
 10
0.0
 20
-0.05
 30
0.0
 11
-1.0
 21
-0.05
 31
0.0
  0
LINE
  5
AB
330
A4
100
AcDbEntity
  8
0
 62
     0
100
AcDbLine
 10
0.0
 20
-0.1
 30
0.0
 11
-1.0
 21
-0.1
 31
0.0
  0
ENDBLK
  5
A6
330
A4
100
AcDbEntity
  8
0
100
AcDbBlockEnd
  0
BLOCK
  5
AD
330
AC
100
AcDbEntity
  8
0
100
AcDbBlockBegin
  2
ArrowheadSectionClosed
 70
     0
 10
0.0
 20
0.0
 30
0.0
  3
ArrowheadSectionClosed
  1

  0
LINE
  5
AF
330
AC
100
AcDbEntity
  8
0
 62
     0
100
AcDbLine
 10
0.0
 20
0.0
 30
0.0
 11
-1.0
 21
0.0
 31
0.0
  0
LINE
  5
B0
330
AC
100
AcDbEntity
  8
0
 62
     0
100
AcDbLine
 10
0.0
 20
0.025
 30
0.0
 11
-0.5
 21
0.025
 31
0.0
  0
LINE
  5
B1
330
AC
100
AcDbEntity
  8
0
 62
     0
100
AcDbLine
 10
0.0
 20
0.05
 30
0.0
 11
-0.5
 21
0.05
 31
0.0
  0
LINE
  5
B2
330
AC
100
AcDbEntity
  8
0
 62
     0
100
AcDbLine
 10
0.0
 20
-0.025
 30
0.0
 11
-0.5
 21
-0.025
 31
0.0
  0
LINE
  5
B3
330
AC
100
AcDbEntity
  8
0
 62
     0
100
AcDbLine
 10
0.0
 20
-0.05
 30
0.0
 11
-0.5
 21
-0.05
 31
0.0
  0
LINE
  5
B4
330
AC
100
AcDbEntity
  8
0
 62
     0
100
AcDbLine
 10
-0.25
 20
-0.5671281819617708
 30
0.0
 11
-0.25
 21
-2.0
 31
0.0
  0
LINE
  5
B5
330
AC
100
AcDbEntity
  8
0
 62
     0
100
AcDbLine
 10
-0.25
 20
0.0
 30
0.0
 11
-0.35
 21
-0.5671281819617708
 31
0.0
  0
LINE
  5
B6
330
AC
100
AcDbEntity
  8
0
 62
     0
100
AcDbLine
 10
-0.25
 20
0.0
 30
0.0
 11
-0.15
 21
-0.5671281819617708
 31
0.0
  0
LINE
  5
B7
330
AC
100
AcDbEntity
  8
0
 62
     0
100
AcDbLine
 10
-0.35
 20
-0.5671281819617708
 30
0.0
 11
-0.15
 21
-0.5671281819617708
 31
0.0
  0
ENDBLK
  5
AE
330
AC
100
AcDbEntity
  8
0
100
AcDbBlockEnd
  0
BLOCK
  5
B9
330
B8
100
AcDbEntity
  8
0
100
AcDbBlockBegin
  2
ArrowheadSectionOpen
 70
     0
 10
0.0
 20
0.0
 30
0.0
  3
ArrowheadSectionOpen
  1

  0
LINE
  5
BB
330
B8
100
AcDbEntity
  8
0
 62
     0
100
AcDbLine
 10
0.0
 20
0.0
 30
0.0
 11
-1.0
 21
0.0
 31
0.0
  0
LINE
  5
BC
330
B8
100
AcDbEntity
  8
0
 62
     0
100
AcDbLine
 10
0.0
 20
0.025
 30
0.0
 11
-0.5
 21
0.025
 31
0.0
  0
LINE
  5
BD
330
B8
100
AcDbEntity
  8
0
 62
     0
100
AcDbLine
 10
0.0
 20
0.05
 30
0.0
 11
-0.5
 21
0.05
 31
0.0
  0
LINE
  5
BE
330
B8
100
AcDbEntity
  8
0
 62
     0
100
AcDbLine
 10
0.0
 20
-0.025
 30
0.0
 11
-0.5
 21
-0.025
 31
0.0
  0
LINE
  5
BF
330
B8
100
AcDbEntity
  8
0
 62
     0
100
AcDbLine
 10
0.0
 20
-0.05
 30
0.0
 11
-0.5
 21
-0.05
 31
0.0
  0
LINE
  5
C0
330
B8
100
AcDbEntity
  8
0
 62
     0
100
AcDbLine
 10
-0.25
 20
0.0
 30
0.0
 11
-0.25
 21
-2.0
 31
0.0
  0
LINE
  5
C1
330
B8
100
AcDbEntity
  8
0
 62
     0
100
AcDbLine
 10
-0.25
 20
0.0
 30
0.0
 11
-0.35
 21
-0.5671281819617708
 31
0.0
  0
LINE
  5
C2
330
B8
100
AcDbEntity
  8
0
 62
     0
100
AcDbLine
 10
-0.25
 20
0.0
 30
0.0
 11
-0.15
 21
-0.5671281819617708
 31
0.0
  0
ENDBLK
  5
BA
330
B8
100
AcDbEntity
  8
0
100
AcDbBlockEnd
  0
BLOCK
  5
C4
330
C3
100
AcDbEntity
  8
0
100
AcDbBlockBegin
  2
ArrowheadTriangle
 70
     0
 10
0.0
 20
0.0
 30
0.0
  3
ArrowheadTriangle
  1

  0
LINE
  5
C6
330
C3
100
AcDbEntity
  8
0
 62
     0
100
AcDbLine
 10
0.0
 20
0.5
 30
0.0
 11
0.0
 21
-0.5
 31
0.0
  0
LINE
  5
C7
330
C3
100
AcDbEntity
  8
0
 62
     0
100
AcDbLine
 10
0.0
 20
-0.5
 30
0.0
 11
-1.0
 21
0.0
 31
0.0
  0
LINE
  5
C8
330
C3
100
AcDbEntity
  8
0
 62
     0
100
AcDbLine
 10
-1.0
 20
0.0
 30
0.0
 11
0.0
 21
0.5
 31
0.0
  0
ENDBLK
  5
C5
330
C3
100
AcDbEntity
  8
0
100
AcDbBlockEnd
  0
BLOCK
  5
CC
330
CB
100
AcDbEntity
  8
0
100
AcDbBlockBegin
  2
BalloonBlockOneText
 70
     2
 10
0.0
 20
0.0
 30
0.0
  3
BalloonBlockOneText
  1

  0
CIRCLE
  5
CE
330
CB
100
AcDbEntity
  8
0
 62
     0
100
AcDbCircle
 10
0.0
 20
0.0
 30
0.0
 40
6.0
  0
ATTDEF
  5
CF
330
CB
100
AcDbEntity
  8
0
 62
     7
100
AcDbText
 10
0.0
 20
-2.0
 30
0.0
 40
4.0
  1

  7
VISI1-courier new
 72
     1
 11
0.0
 21
0.0
 31
0.0
100
AcDbAttributeDefinition
  3
Enter Attr: 
  2
Balloon_One
 70
     0
 74
     2
280
     0
  0
ENDBLK
  5
CD
330
CB
100
AcDbEntity
  8
0
100
AcDbBlockEnd
  0
BLOCK
  5
D1
330
D0
100
AcDbEntity
  8
0
100
AcDbBlockBegin
  2
BalloonBlockTwoText
 70
     2
 10
0.0
 20
0.0
 30
0.0
  3
BalloonBlockTwoText
  1

  0
CIRCLE
  5
D3
330
D0
100
AcDbEntity
  8
0
 62
     0
100
AcDbCircle
 10
0.0
 20
0.0
 30
0.0
 40
6.0
  0
LINE
  5
D4
330
D0
100
AcDbEntity
  8
0
 62
     0
100
AcDbLine
 10
-6.0
 20
0.0
 30
0.0
 11
6.0
 21
0.0
 31
0.0
  0
ATTDEF
  5
D5
330
D0
100
AcDbEntity
  8
0
 62
     7
100
AcDbText
 10
0.0
 20
1.666666666666667
 30
0.0
 40
2.666666666666667
  1

  7
VISI1-courier new
 72
     1
 11
0.0
 21
3.0
 31
0.0
100
AcDbAttributeDefinition
  3
Enter Attr: 
  2
Balloon_Two
 70
     0
 74
     2
280
     0
  0
ATTDEF
  5
D6
330
D0
100
AcDbEntity
  8
0
 62
     7
100
AcDbText
 10
-1.4
 20
-4.333333333333333
 30
0.0
 40
2.666666666666667
  1
2
  7
VISI1-courier new
 72
     1
 11
0.0
 21
-3.0
 31
0.0
100
AcDbAttributeDefinition
  3
Enter Attr: 
  2
Balloon_Two1
 70
     0
 74
     2
280
     0
  0
ENDBLK
  5
D2
330
D0
100
AcDbEntity
  8
0
100
AcDbBlockEnd
  0
BLOCK
  5
D8
330
D7
100
AcDbEntity
  8
0
100
AcDbBlockBegin
  2
BalloonBlockThreeText
 70
     2
 10
0.0
 20
0.0
 30
0.0
  3
BalloonBlockThreeText
  1

  0
CIRCLE
  5
DA
330
D7
100
AcDbEntity
  8
0
 62
     0
100
AcDbCircle
 10
0.0
 20
0.0
 30
0.0
 40
6.0
  0
LINE
  5
DB
330
D7
100
AcDbEntity
  8
0
 62
     0
100
AcDbLine
 10
-6.0
 20
0.0
 30
0.0
 11
6.0
 21
0.0
 31
0.0
  0
LINE
  5
DC
330
D7
100
AcDbEntity
  8
0
 62
     0
100
AcDbLine
 10
0.0
 20
0.0
 30
0.0
 11
0.0
 21
-6.0
 31
0.0
  0
ATTDEF
  5
DD
330
D7
100
AcDbEntity
  8
0
 62
     7
100
AcDbText
 10
0.0
 20
2.090909090909091
 30
0.0
 40
1.818181818181818
  1

  7
VISI1-courier new
 72
     1
 11
0.0
 21
3.0
 31
0.0
100
AcDbAttributeDefinition
  3
Enter Attr: 
  2
Balloon_Three
 70
     0
 74
     2
280
     0
  0
ATTDEF
  5
DE
330
D7
100
AcDbEntity
  8
0
 62
     7
100
AcDbText
 10
-3.954545454545455
 20
-2.909090909090909
 30
0.0
 40
1.818181818181818
  1
2
  7
VISI1-courier new
 72
     1
 11
-3.0
 21
-2.0
 31
0.0
100
AcDbAttributeDefinition
  3
Enter Attr: 
  2
Balloon_Three1
 70
     0
 74
     2
280
     0
  0
ATTDEF
  5
DF
330
D7
100
AcDbEntity
  8
0
 62
     7
100
AcDbText
 10
3.0
 20
-2.909090909090909
 30
0.0
 40
1.818181818181818
  1

  7
VISI1-courier new
 72
     1
 11
3.0
 21
-2.0
 31
0.0
100
AcDbAttributeDefinition
  3
Enter Attr: 
  2
Balloon_Three2
 70
     0
 74
     2
280
     0
  0
ENDBLK
  5
D9
330
D7
100
AcDbEntity
  8
0
100
AcDbBlockEnd
  0
BLOCK
  5
E1
330
E0
100
AcDbEntity
  8
0
100
AcDbBlockBegin
  2
BalloonBlockRect
 70
     2
 10
0.0
 20
0.0
 30
0.0
  3
BalloonBlockRect
  1

  0
LINE
  5
E3
330
E0
100
AcDbEntity
  8
0
 62
     0
100
AcDbLine
 10
-12.0
 20
-6.0
 30
0.0
 11
12.0
 21
-6.0
 31
0.0
  0
LINE
  5
E4
330
E0
100
AcDbEntity
  8
0
 62
     0
100
AcDbLine
 10
12.0
 20
-6.0
 30
0.0
 11
12.0
 21
6.0
 31
0.0
  0
LINE
  5
E5
330
E0
100
AcDbEntity
  8
0
 62
     0
100
AcDbLine
 10
12.0
 20
6.0
 30
0.0
 11
-12.0
 21
6.0
 31
0.0
  0
LINE
  5
E6
330
E0
100
AcDbEntity
  8
0
 62
     0
100
AcDbLine
 10
-12.0
 20
6.0
 30
0.0
 11
-12.0
 21
-6.0
 31
0.0
  0
ATTDEF
  5
E7
330
E0
100
AcDbEntity
  8
0
 62
     7
100
AcDbText
 10
0.0
 20
-2.0
 30
0.0
 40
4.0
  1

  7
VISI1-courier new
 72
     1
 11
0.0
 21
0.0
 31
0.0
100
AcDbAttributeDefinition
  3
Enter Attr: 
  2
Balloon_Rect
 70
     0
 74
     2
280
     0
  0
ENDBLK
  5
E2
330
E0
100
AcDbEntity
  8
0
100
AcDbBlockEnd
  0
BLOCK
  5
F1
330
F0
100
AcDbEntity
  8
0
100
AcDbBlockBegin
  2
Group 1
 70
     0
 10
0.0
 20
0.0
 30
0.0
  3
Group 1
  1

  0
LINE
  5
F3
330
F0
100
AcDbEntity
  8
LAYER0
  6
Continuous
 62
    56
100
AcDbLine
 10
0.0
 20
0.0
 30
0.0
 11
0.0
 21
198.0000000000001
 31
0.0
  0
LINE
  5
F4
330
F0
100
AcDbEntity
  8
LAYER0
  6
Continuous
 62
    56
100
AcDbLine
 10
140.0
 20
0.0
 30
0.0
 11
140.0
 21
198.0000000000001
 31
0.0
  0
LINE
  5
F5
330
F0
100
AcDbEntity
  8
LAYER0
  6
Continuous
 62
    56
100
AcDbLine
 10
140.0
 20
198.0000000000001
 30
0.0
 11
0.0
 21
198.0000000000001
 31
0.0
  0
LINE
  5
F6
330
F0
100
AcDbEntity
  8
LAYER0
  6
Continuous
 62
    56
100
AcDbLine
 10
140.0
 20
0.0
 30
0.0
 11
0.0
 21
0.0
 31
0.0
  0
TEXT
  5
F7
330
F0
100
AcDbEntity
  8
LAYER0
  6
Continuous
 62
    56
100
AcDbText
 10
79.26632594955407
 20
6.69948461333933
 30
0.0
 40
2.000000000000002
  1
100
 41
0.825396827643825
  7
VISI1-courier new
 72
     5
 11
84.46632596371018
 21
6.69948461333933
 31
0.0
100
AcDbText
  0
LINE
  5
F8
330
F0
100
AcDbEntity
  8
LAYER0
  6
Continuous
 62
    56
100
AcDbLine
 10
74.33333333333329
 20
6.005400417752035
 30
0.0
 11
74.33333333333329
 21
4.000000000000004
 31
0.0
  0
TEXT
  5
F9
330
F0
100
AcDbEntity
  8
LAYER0
  6
Continuous
 62
    56
100
AcDbText
 10
73.19965928288734
 20
6.69948461333933
 30
0.0
 40
2.000000000000002
  1
90
 41
0.8095238202561927
  7
VISI1-courier new
 72
     5
 11
76.59965932796335
 21
6.69948461333933
 31
0.0
100
AcDbText
  0
LINE
  5
FA
330
F0
100
AcDbEntity
  8
LAYER0
  6
Continuous
 62
    56
100
AcDbLine
 10
67.66666666666676
 20
6.005400417752035
 30
0.0
 11
67.66666666666676
 21
4.000000000000004
 31
0.0
  0
TEXT
  5
FB
330
F0
100
AcDbEntity
  8
LAYER0
  6
Continuous
 62
    56
100
AcDbText
 10
66.53299261622081
 20
6.69948461333933
 30
0.0
 40
2.000000000000002
  1
80
 41
0.8095238202561927
  7
VISI1-courier new
 72
     5
 11
69.93299266129682
 21
6.69948461333933
 31
0.0
100
AcDbText
  0
LINE
  5
FC
330
F0
100
AcDbEntity
  8
LAYER0
  6
Continuous
 62
    56
100
AcDbLine
 10
61.00000000000025
 20
6.005400417752035
 30
0.0
 11
61.00000000000025
 21
4.000000000000004
 31
0.0
  0
TEXT
  5
FD
330
F0
100
AcDbEntity
  8
LAYER0
  6
Continuous
 62
    56
100
AcDbText
 10
59.86632594955399
 20
6.69948461333933
 30
0.0
 40
2.000000000000002
  1
70
 41
0.8095238202561927
  7
VISI1-courier new
 72
     5
 11
63.26632599463
 21
6.69948461333933
 31
0.0
100
AcDbText
  0
LINE
  5
FE
330
F0
100
AcDbEntity
  8
LAYER0
  6
Continuous
 62
    56
100
AcDbLine
 10
54.33333333333343
 20
6.005400417752035
 30
0.0
 11
54.33333333333343
 21
4.000000000000004
 31
0.0
  0
TEXT
  5
FF
330
F0
100
AcDbEntity
  8
LAYER0
  6
Continuous
 62
    56
100
AcDbText
 10
53.19965928288747
 20
6.69948461333933
 30
0.0
 40
2.000000000000002
  1
60
 41
0.8095238202561927
  7
VISI1-courier new
 72
     5
 11
56.59965932796349
 21
6.69948461333933
 31
0.0
100
AcDbText
  0
LINE
  5
100
330
F0
100
AcDbEntity
  8
LAYER0
  6
Continuous
 62
    56
100
AcDbLine
 10
47.6666666666669
 20
6.005400417752035
 30
0.0
 11
47.6666666666669
 21
4.000000000000004
 31
0.0
  0
TEXT
  5
101
330
F0
100
AcDbEntity
  8
LAYER0
  6
Continuous
 62
    56
100
AcDbText
 10
46.53299261622065
 20
6.69948461333933
 30
0.0
 40
2.000000000000002
  1
50
 41
0.8095238202561927
  7
VISI1-courier new
 72
     5
 11
49.93299266129667
 21
6.69948461333933
 31
0.0
100
AcDbText
  0
LINE
  5
102
330
F0
100
AcDbEntity
  8
LAYER0
  6
Continuous
 62
    56
100
AcDbLine
 10
41.00000000000008
 20
6.005400417752035
 30
0.0
 11
41.00000000000008
 21
4.000000000000004
 31
0.0
  0
TEXT
  5
103
330
F0
100
AcDbEntity
  8
LAYER0
  6
Continuous
 62
    56
100
AcDbText
 10
39.86632594955412
 20
6.69948461333933
 30
0.0
 40
2.000000000000002
  1
40
 41
0.8095238202561927
  7
VISI1-courier new
 72
     5
 11
43.26632599463014
 21
6.69948461333933
 31
0.0
100
AcDbText
  0
LINE
  5
104
330
F0
100
AcDbEntity
  8
LAYER0
  6
Continuous
 62
    56
100
AcDbLine
 10
34.33333333333356
 20
6.005400417752035
 30
0.0
 11
34.33333333333356
 21
4.000000000000004
 31
0.0
  0
TEXT
  5
105
330
F0
100
AcDbEntity
  8
LAYER0
  6
Continuous
 62
    56
100
AcDbText
 10
33.1996592828873
 20
6.69948461333933
 30
0.0
 40
2.000000000000002
  1
30
 41
0.8095238202561927
  7
VISI1-courier new
 72
     5
 11
36.59965932796332
 21
6.69948461333933
 31
0.0
100
AcDbText
  0
LINE
  5
106
330
F0
100
AcDbEntity
  8
LAYER0
  6
Continuous
 62
    56
100
AcDbLine
 10
27.66666666666674
 20
6.005400417752035
 30
0.0
 11
27.66666666666674
 21
4.000000000000004
 31
0.0
  0
TEXT
  5
107
330
F0
100
AcDbEntity
  8
LAYER0
  6
Continuous
 62
    56
100
AcDbText
 10
26.53299261622078
 20
6.69948461333933
 30
0.0
 40
2.000000000000002
  1
20
 41
0.8095238202561927
  7
VISI1-courier new
 72
     5
 11
29.93299266129679
 21
6.69948461333933
 31
0.0
100
AcDbText
  0
TEXT
  5
108
330
F0
100
AcDbEntity
  8
LAYER0
  6
Continuous
 62
    56
100
AcDbText
 10
19.86632594955396
 20
6.69948461333933
 30
0.0
 40
2.000000000000002
  1
10
 41
0.8095238202561927
  7
VISI1-courier new
 72
     5
 11
23.26632599462997
 21
6.69948461333933
 31
0.0
100
AcDbText
  0
TEXT
  5
109
330
F0
100
AcDbEntity
  8
LAYER0
  6
Continuous
 62
    56
100
AcDbText
 10
13.79537493283146
 20
6.75371998745937
 30
0.0
 40
2.000000000000002
  1
0
 41
0.761904742657428
  7
VISI1-courier new
 72
     5
 11
15.39537489241206
 21
6.75371998745937
 31
0.0
100
AcDbText
  0
LINE
  5
10A
330
F0
100
AcDbEntity
  8
LAYER0
  6
Continuous
 62
    56
100
AcDbLine
 10
20.33333333333332
 20
5.000000000000046
 30
0.0
 11
20.33333333333332
 21
4.000000000000004
 31
0.0
  0
LINE
  5
10B
330
F0
100
AcDbEntity
  8
LAYER0
  6
Continuous
 62
    56
100
AcDbLine
 10
19.66666666666673
 20
5.000000000000046
 30
0.0
 11
19.66666666666673
 21
4.000000000000004
 31
0.0
  0
LINE
  5
10C
330
F0
100
AcDbEntity
  8
LAYER0
  6
Continuous
 62
    56
100
AcDbLine
 10
19.00000000000014
 20
5.000000000000046
 30
0.0
 11
19.00000000000014
 21
4.000000000000004
 31
0.0
  0
LINE
  5
10D
330
F0
100
AcDbEntity
  8
LAYER0
  6
Continuous
 62
    56
100
AcDbLine
 10
18.33333333333354
 20
5.000000000000046
 30
0.0
 11
18.33333333333354
 21
4.000000000000004
 31
0.0
  0
LINE
  5
10E
330
F0
100
AcDbEntity
  8
LAYER0
  6
Continuous
 62
    56
100
AcDbLine
 10
17.00000000000006
 20
5.000000000000046
 30
0.0
 11
17.00000000000006
 21
4.000000000000004
 31
0.0
  0
LINE
  5
10F
330
F0
100
AcDbEntity
  8
LAYER0
  6
Continuous
 62
    56
100
AcDbLine
 10
16.33333333333346
 20
5.000000000000046
 30
0.0
 11
16.33333333333346
 21
4.000000000000004
 31
0.0
  0
LINE
  5
110
330
F0
100
AcDbEntity
  8
LAYER0
  6
Continuous
 62
    56
100
AcDbLine
 10
15.66666666666687
 20
5.000000000000046
 30
0.0
 11
15.66666666666687
 21
4.000000000000004
 31
0.0
  0
LINE
  5
111
330
F0
100
AcDbEntity
  8
LAYER0
  6
Continuous
 62
    56
100
AcDbLine
 10
14.99999999999998
 20
5.000000000000046
 30
0.0
 11
14.99999999999998
 21
4.000000000000004
 31
0.0
  0
LINE
  5
112
330
F0
100
AcDbEntity
  8
LAYER0
  6
Continuous
 62
    56
100
AcDbLine
 10
17.66666666666665
 20
5.683906169356698
 30
0.0
 11
17.66666666666665
 21
4.000000000000004
 31
0.0
  0
LINE
  5
113
330
F0
100
AcDbEntity
  8
LAYER0
  6
Continuous
 62
    56
100
AcDbLine
 10
21.00000000000021
 20
6.005400417752035
 30
0.0
 11
21.00000000000021
 21
4.000000000000004
 31
0.0
  0
LINE
  5
114
330
F0
100
AcDbEntity
  8
LAYER0
  6
Continuous
 62
    56
100
AcDbLine
 10
14.33333333333339
 20
6.005400417752035
 30
0.0
 11
14.33333333333339
 21
4.000000000000004
 31
0.0
  0
TEXT
  5
115
330
F0
100
AcDbEntity
  8
LAYER0
  6
Continuous
 62
    56
100
AcDbText
 10
93.78678035897005
 20
5.661805905384718
 30
0.0
 40
2.0
  1
DIMENSIONS ARE IN MILLIMETERS
 41
0.9458127916348579
  7
VISI1-courier new
 72
     5
 11
151.3867793695329
 21
5.661805905384718
 31
0.0
100
AcDbText
  0
LINE
  5
116
330
F0
100
AcDbEntity
  8
LAYER0
  6
Continuous
 62
     7
100
AcDbLine
 10
4.3333333333333
 20
4.000000000000004
 30
0.0
 11
4.3333333333333
 21
194.0000000000001
 31
0.0
  0
LINE
  5
117
330
F0
100
AcDbEntity
  8
LAYER0
  6
Continuous
 62
     7
100
AcDbLine
 10
135.2000000000002
 20
194.0000000000001
 30
0.0
 11
4.3333333333333
 21
194.0000000000001
 31
0.0
  0
LINE
  5
118
330
F0
100
AcDbEntity
  8
LAYER0
  6
Continuous
 62
    56
100
AcDbLine
 10
81.00000000000011
 20
6.005400417752035
 30
0.0
 11
81.00000000000011
 21
4.000000000000004
 31
0.0
  0
LINE
  5
119
330
F0
100
AcDbEntity
  8
LAYER0
  6
Continuous
 62
     7
100
AcDbLine
 10
135.666666666667
 20
4.000000000000004
 30
0.0
 11
135.666666666667
 21
194.0000000000001
 31
0.0
  0
LINE
  5
11A
330
F0
100
AcDbEntity
  8
LAYER0
  6
Continuous
 62
     7
100
AcDbLine
 10
4.3333333333333
 20
8.666666666666684
 30
0.0
 11
135.666666666667
 21
8.666666666666684
 31
0.0
  0
LINE
  5
11B
330
F0
100
AcDbEntity
  8
LAYER0
  6
Continuous
 62
     7
100
AcDbLine
 10
4.3333333333333
 20
4.000000000000004
 30
0.0
 11
135.666666666667
 21
4.000000000000004
 31
0.0
  0
LINE
  5
11C
330
F0
100
AcDbEntity
  8
LAYER0
  6
Continuous
 62
     7
100
AcDbLine
 10
4.3333333333333
 20
4.000000000000004
 30
0.0
 11
135.666666666667
 21
4.000000000000004
 31
0.0
  0
TEXT
  5
11D
330
F0
100
AcDbEntity
  8
LAYER0
  6
Continuous
 62
    56
100
AcDbText
 10
52.83347952876868
 20
35.61365252594599
 30
0.0
 40
2.0
  1
NAME
 41
0.8571428424190907
  7
VISI1-courier new
 72
     5
 11
60.03347940508905
 21
35.61365252594599
 31
0.0
100
AcDbText
  0
TEXT
  5
11E
330
F0
100
AcDbEntity
  8
LAYER0
  6
Continuous
 62
    56
100
AcDbText
 10
34.35010008667068
 20
37.61365252594599
 30
0.0
 40
2.0
  1
Datum
 41
0.8666667022875377
  7
VISI1-courier new
 72
     5
 11
43.45010046068982
 21
37.61365252594599
 31
0.0
100
AcDbText
  0
TEXT
  5
11F
330
F0
100
AcDbEntity
  8
LAYER0
  6
Continuous
 62
    56
100
AcDbText
 10
34.35010008667068
 20
35.61365252594599
 30
0.0
 40
2.0
  1
DATE
 41
0.8571428424190907
  7
VISI1-courier new
 72
     5
 11
41.55009996299104
 21
35.61365252594599
 31
0.0
100
AcDbText
  0
TEXT
  5
120
330
F0
100
AcDbEntity
  8
LAYER0
  6
Continuous
 62
    56
100
AcDbText
 10
13.75700226474753
 20
37.61365252594599
 30
0.0
 40
2.0
  1
Aenderng.Nr.
 41
0.8888888571943553
  7
VISI1-courier new
 72
     5
 11
36.15700146604529
 21
37.61365252594599
 31
0.0
100
AcDbText
  0
TEXT
  5
121
330
F0
100
AcDbEntity
  8
LAYER0
  6
Continuous
 62
    56
100
AcDbText
 10
13.75700226474753
 20
35.61365252594599
 30
0.0
 40
2.0
  1
MODIFIC.NO.
 41
0.88744591195862
  7
VISI1-courier new
 72
     5
 11
34.25700283099165
 21
35.61365252594599
 31
0.0
100
AcDbText
  0
TEXT
  5
122
330
F0
100
AcDbEntity
  8
LAYER0
  6
Continuous
 62
    56
100
AcDbText
 10
5.357348566906062
 20
37.61365252594599
 30
0.0
 40
2.0
  1
Index
 41
0.8666667022875377
  7
VISI1-courier new
 72
     5
 11
14.45734894092521
 21
37.61365252594599
 31
0.0
100
AcDbText
  0
TEXT
  5
123
330
F0
100
AcDbEntity
  8
LAYER0
  6
Continuous
 62
    56
100
AcDbText
 10
5.357348566906062
 20
35.61365252594599
 30
0.0
 40
2.0
  1
INDEX
 41
0.8666667022875377
  7
VISI1-courier new
 72
     5
 11
14.45734894092521
 21
35.61365252594599
 31
0.0
100
AcDbText
  0
TEXT
  5
124
330
F0
100
AcDbEntity
  8
LAYER0
  6
Continuous
 62
    56
100
AcDbText
 10
98.89638330474219
 20
20.67863411486867
 30
0.0
 40
2.0
  1
Zeichnungsnr./DRAWING NO.
 41
0.8971428587323145
  7
VISI1-courier new
 72
     5
 11
145.9963833881887
 21
20.67863411486867
 31
0.0
100
AcDbText
  0
TEXT
  5
125
330
F0
100
AcDbEntity
  8
LAYER0
  6
Continuous
 62
    56
100
AcDbText
 10
6.015312543698734
 20
20.67863411486867
 30
0.0
 40
2.0
  1
Benennung/
 41
0.8857142889783495
  7
VISI1-courier new
 72
     5
 11
24.61531261224408
 21
20.67863411486867
 31
0.0
100
AcDbText
  0
TEXT
  5
126
330
F0
100
AcDbEntity
  8
LAYER0
  6
Continuous
 62
    56
100
AcDbText
 10
6.015312543698734
 20
18.67863411486867
 30
0.0
 40
2.0
  1
TITLE
 41
0.8666667022875377
  7
VISI1-courier new
 72
     5
 11
15.11531291771788
 21
18.67863411486867
 31
0.0
100
AcDbText
  0
TEXT
  5
127
330
F0
100
AcDbEntity
  8
LAYER0
  6
Continuous
 62
    56
100
AcDbText
 10
5.879832396410073
 20
24.36880030099069
 30
0.0
 40
2.0
  1
MATERIAL
 41
0.8809523812184731
  7
VISI1-courier new
 72
     5
 11
20.67983240088042
 21
24.36880030099069
 31
0.0
100
AcDbText
  0
TEXT
  5
128
330
F0
100
AcDbEntity
  8
LAYER0
  6
Continuous
 62
    56
100
AcDbText
 10
5.78311033436929
 20
32.19444663440138
 30
0.0
 40
2.0
  1
Format/
 41
0.8775509868552085
  7
VISI1-courier new
 72
     5
 11
18.68310984114085
 21
32.19444663440138
 31
0.0
100
AcDbText
  0
TEXT
  5
129
330
F0
100
AcDbEntity
  8
LAYER0
  6
Continuous
 62
    56
100
AcDbText
 10
5.78311033436929
 20
30.19444663440138
 30
0.0
 40
2.0
  1
SIZE
 41
0.8571428424190907
  7
VISI1-courier new
 72
     5
 11
12.98311021068965
 21
30.19444663440138
 31
0.0
100
AcDbText
  0
LINE
  5
12A
330
F0
100
AcDbEntity
  8
LAYER0
  6
Continuous
 62
    56
100
AcDbLine
 10
77.66666666666686
 20
52.00000000000006
 30
0.0
 11
77.66666666666686
 21
40.00000000000005
 31
0.0
  0
LINE
  5
12B
330
F0
100
AcDbEntity
  8
LAYER0
  6
Continuous
 62
    56
100
AcDbLine
 10
45.66666666666683
 20
52.00000000000006
 30
0.0
 11
45.66666666666683
 21
34.66666666666671
 31
0.0
  0
LINE
  5
12C
330
F0
100
AcDbEntity
  8
LAYER0
  6
Continuous
 62
    56
100
AcDbLine
 10
29.00000000000021
 20
52.00000000000006
 30
0.0
 11
29.00000000000021
 21
34.66666666666671
 31
0.0
  0
LINE
  5
12D
330
F0
100
AcDbEntity
  8
LAYER0
  6
Continuous
 62
    56
100
AcDbLine
 10
12.33333333333331
 20
52.00000000000006
 30
0.0
 11
12.33333333333331
 21
34.66666666666671
 31
0.0
  0
LINE
  5
12E
330
F0
100
AcDbEntity
  8
LAYER0
  6
Continuous
 62
    56
100
AcDbLine
 10
34.33333333333356
 20
29.0
 30
0.0
 11
34.33333333333356
 21
34.66666666666671
 31
0.0
  0
LINE
  5
12F
330
F0
100
AcDbEntity
  8
LAYER0
  6
Continuous
 62
    56
100
AcDbLine
 10
64.3333333333335
 20
34.66666666666671
 30
0.0
 11
4.3333333333333
 21
34.66666666666671
 31
0.0
  0
LINE
  5
130
330
F0
100
AcDbEntity
  8
LAYER0
  6
Continuous
 62
     7
100
AcDbLine
 10
97.66666666666671
 20
40.00000000000005
 30
0.0
 11
4.3333333333333
 21
40.00000000000005
 31
0.0
  0
LINE
  5
131
330
F0
100
AcDbEntity
  8
LAYER0
  6
Continuous
 62
    56
100
AcDbLine
 10
97.66666666666671
 20
48.00000000000006
 30
0.0
 11
4.3333333333333
 21
48.00000000000006
 31
0.0
  0
LINE
  5
132
330
F0
100
AcDbEntity
  8
LAYER0
  6
Continuous
 62
     7
100
AcDbLine
 10
64.3333333333335
 20
52.00000000000006
 30
0.0
 11
64.3333333333335
 21
23.33333333333336
 31
0.0
  0
TEXT
  5
133
330
F0
100
AcDbEntity
  8
LAYER0
  6
Continuous
 62
    56
100
AcDbText
 10
64.93531243965566
 20
45.32532734732099
 30
0.0
 40
2.0
  1
Datum/DATE
 41
0.8857142889783495
  7
VISI1-courier new
 72
     5
 11
83.535312508201
 21
45.32532734732099
 31
0.0
100
AcDbText
  0
TEXT
  5
134
330
F0
100
AcDbEntity
  8
LAYER0
  6
Continuous
 62
    56
100
AcDbText
 10
64.95465676153808
 20
41.27161650273938
 30
0.0
 40
2.0
  1
geprueft
 41
0.8809523812184731
  7
VISI1-courier new
 72
     5
 11
79.75465676600842
 21
41.27161650273938
 31
0.0
100
AcDbText
  0
TEXT
  5
135
330
F0
100
AcDbEntity
  8
LAYER0
  6
Continuous
 62
    56
100
AcDbText
 10
65.06616037143183
 20
49.2943812778613
 30
0.0
 40
2.0
  1
Name/NAME
 41
0.8835978608913522
  7
VISI1-courier new
 72
     5
 11
81.76615994227839
 21
49.2943812778613
 31
0.0
100
AcDbText
  0
TEXT
  5
136
330
F0
100
AcDbEntity
  8
LAYER0
  6
Continuous
 62
    56
100
AcDbText
 10
52.83347952876868
 20
37.61365252594599
 30
0.0
 40
2.0
  1
Name
 41
0.8571428424190907
  7
VISI1-courier new
 72
     5
 11
60.03347940508905
 21
37.61365252594599
 31
0.0
100
AcDbText
  0
TEXT
  5
137
330
F0
100
AcDbEntity
  8
LAYER0
  6
Continuous
 62
    56
100
AcDbText
 10
5.879832396410073
 20
26.36880030099069
 30
0.0
 40
2.0
  1
Werkstoff/
 41
0.8857142889783495
  7
VISI1-courier new
 72
     5
 11
24.47983246495541
 21
26.36880030099069
 31
0.0
100
AcDbText
  0
TEXT
  5
138
330
F0
100
AcDbEntity
  8
LAYER0
  6
Continuous
 62
    56
100
AcDbText
 10
98.3274975054658
 20
29.86500974401832
 30
0.0
 40
5.0
  1
VISI SERIES
 41
0.9317666075990674
  7
VISI1-courier new
 72
     5
 11
152.1370190943119
 21
29.86500974401832
 31
0.0
100
AcDbText
  0
LINE
  5
139
330
F0
100
AcDbEntity
  8
LAYER0
  6
Continuous
 62
    56
100
AcDbLine
 10
97.66666666666671
 20
44.00000000000005
 30
0.0
 11
4.3333333333333
 21
44.00000000000005
 31
0.0
  0
LINE
  5
13A
330
F0
100
AcDbEntity
  8
LAYER0
  6
Continuous
 62
     7
100
AcDbLine
 10
97.66666666666671
 20
52.00000000000006
 30
0.0
 11
97.66666666666671
 21
13.33333333333335
 31
0.0
  0
LINE
  5
13B
330
F0
100
AcDbEntity
  8
LAYER0
  6
Continuous
 62
    56
100
AcDbLine
 10
4.3333333333333
 20
29.0
 30
0.0
 11
97.66666666666671
 21
29.0
 31
0.0
  0
TEXT
  5
13C
330
F0
100
AcDbEntity
  8
LAYER0
  6
Continuous
 62
    56
100
AcDbText
 10
69.25596754697504
 20
31.74156640569392
 30
0.0
 40
2.0
  1
DIN 7168 / mittel
 41
0.9411764370293174
  7
VISI1-courier new
 72
     5
 11
102.8559663489217
 21
31.74156640569392
 31
0.0
100
AcDbText
  0
TEXT
  5
13D
330
F0
100
AcDbEntity
  8
LAYER0
  6
Continuous
 62
    56
100
AcDbText
 10
68.45714062126085
 20
35.91884044619706
 30
0.0
 40
2.0
  1
Allgemeintoleranzen
 41
0.9423558761302687
  7
VISI1-courier new
 72
     5
 11
106.0571400788586
 21
35.91884044619706
 31
0.0
100
AcDbText
  0
TEXT
  5
13E
330
F0
100
AcDbEntity
  8
LAYER0
  6
Continuous
 62
    56
100
AcDbText
 10
68.45714062126085
 20
33.91884044619706
 30
0.0
 40
2.0
  1
GENERAL TOLERANCES
 41
0.9417989187770417
  7
VISI1-courier new
 72
     5
 11
104.057139751033
 21
33.91884044619706
 31
0.0
100
AcDbText
  0
LINE
  5
13F
330
F0
100
AcDbEntity
  8
LAYER0
  6
Continuous
 62
    56
100
AcDbLine
 10
84.21853949110266
 20
28.26890451622496
 30
0.0
 11
84.21853949110266
 21
24.12370920305762
 31
0.0
  0
CIRCLE
  5
140
330
F0
100
AcDbEntity
  8
LAYER0
  6
Continuous
 62
    56
100
AcDbCircle
 10
84.21853949110266
 20
26.19630683650964
 30
0.0
 40
0.8290390996445324
  0
CIRCLE
  5
141
330
F0
100
AcDbEntity
  8
LAYER0
  6
Continuous
 62
    56
100
AcDbCircle
 10
84.21853949110266
 20
26.19630683650964
 30
0.0
 40
0.8290390997365976
  0
CIRCLE
  5
142
330
F0
100
AcDbEntity
  8
LAYER0
  6
Continuous
 62
    56
100
AcDbCircle
 10
84.21853949110266
 20
26.19630683650964
 30
0.0
 40
1.658078153209175
  0
LINE
  5
143
330
F0
100
AcDbEntity
  8
LAYER0
  6
Continuous
 62
    56
100
AcDbLine
 10
75.70839871530252
 20
26.19630683650964
 30
0.0
 11
86.2916012846974
 21
26.19630683650964
 31
0.0
  0
CIRCLE
  5
144
330
F0
100
AcDbEntity
  8
LAYER0
  6
Continuous
 62
    56
100
AcDbCircle
 10
84.21853949110266
 20
26.19630683650964
 30
0.0
 40
1.658078153025322
  0
LINE
  5
145
330
F0
100
AcDbEntity
  8
LAYER0
  6
Continuous
 62
    56
100
AcDbLine
 10
76.51337995017708
 20
27.02534593615366
 30
0.0
 11
76.51337995017708
 21
25.3672677831283
 31
0.0
  0
LINE
  5
146
330
F0
100
AcDbEntity
  8
LAYER0
  6
Continuous
 62
    56
100
AcDbLine
 10
81.45476771174329
 20
27.8543849895343
 30
0.0
 11
81.45476771174329
 21
24.53822872974765
 31
0.0
  0
LINE
  5
147
330
F0
100
AcDbEntity
  8
LAYER0
  6
Continuous
 62
    56
100
AcDbLine
 10
76.51384230604948
 20
27.02534593615366
 30
0.0
 11
81.45523011387853
 21
27.8543849895343
 31
0.0
  0
LINE
  5
148
330
F0
100
AcDbEntity
  8
LAYER0
  6
Continuous
 62
    56
100
AcDbLine
 10
81.45523011387853
 20
24.53822872974765
 30
0.0
 11
76.51384230604948
 21
25.3672677831283
 31
0.0
  0
TEXT
  5
149
330
F0
100
AcDbEntity
  8
LAYER0
  6
Continuous
 62
     7
100
AcDbText
 10
20.68192153217356
 20
30.518291703862
 30
0.0
 40
3.5
  1
A4
 41
0.8571427949026328
  7
VISI1-courier new
 72
     5
 11
26.98192107470791
 21
30.518291703862
 31
0.0
100
AcDbText
  0
SPLINE
  5
14A
330
F0
100
AcDbEntity
  8
LAYER0
  6
Continuous
 62
     7
100
AcDbSpline
210
0.0
220
0.0
230
1.0
 70
     8
 71
     2
 72
     6
 73
     3
 74
     0
 42
0.000000001
 43
0.00000001
 40
0.0
 40
0.0
 40
0.0
 40
1.0
 40
1.0
 40
1.0
 10
123.5832727643773
 20
44.15612475736193
 30
0.0
 10
123.5832727643773
 20
43.80612475736194
 30
0.0
 10
123.4801477643771
 20
43.47799975736193
 30
0.0
  0
SPLINE
  5
14B
330
F0
100
AcDbEntity
  8
LAYER0
  6
Continuous
 62
     7
100
AcDbSpline
210
0.0
220
0.0
230
1.0
 70
     8
 71
     2
 72
     6
 73
     3
 74
     0
 42
0.000000001
 43
0.00000001
 40
0.0
 40
0.0
 40
0.0
 40
1.0
 40
1.0
 40
1.0
 10
103.5832727643771
 20
46.11237475736192
 30
0.0
 10
104.2082727643772
 20
46.11237475736192
 30
0.0
 10
104.4957727643772
 20
45.80924975736193
 30
0.0
  0
SPLINE
  5
14C
330
F0
100
AcDbEntity
  8
LAYER0
  6
Continuous
 62
     7
100
AcDbSpline
210
0.0
220
0.0
230
1.0
 70
     8
 71
     2
 72
     6
 73
     3
 74
     0
 42
0.000000001
 43
0.00000001
 40
0.0
 40
0.0
 40
0.0
 40
1.0
 40
1.0
 40
1.0
 10
104.4957727643772
 20
45.80924975736193
 30
0.0
 10
104.7832727643773
 20
45.50612475736195
 30
0.0
 10
104.7832727643773
 20
44.91237475736194
 30
0.0
  0
LINE
  5
14D
330
F0
100
AcDbEntity
  8
LAYER0
  6
Continuous
 62
     7
100
AcDbLine
 10
104.7832727643773
 20
44.91237475736194
 30
0.0
 11
104.7832727643773
 21
42.11237475736192
 31
0.0
  0
LINE
  5
14E
330
F0
100
AcDbEntity
  8
LAYER0
  6
Continuous
 62
     7
100
AcDbLine
 10
104.7832727643773
 20
42.11237475736192
 30
0.0
 11
103.5832727643771
 21
42.11237475736192
 31
0.0
  0
LINE
  5
14F
330
F0
100
AcDbEntity
  8
LAYER0
  6
Continuous
 62
     7
100
AcDbLine
 10
103.5832727643771
 20
42.11237475736192
 30
0.0
 11
103.5832727643771
 21
44.44362475736192
 31
0.0
  0
SPLINE
  5
150
330
F0
100
AcDbEntity
  8
LAYER0
  6
Continuous
 62
     7
100
AcDbSpline
210
0.0
220
0.0
230
1.0
 70
     8
 71
     2
 72
     6
 73
     3
 74
     0
 42
0.000000001
 43
0.00000001
 40
0.0
 40
0.0
 40
0.0
 40
1.0
 40
1.0
 40
1.0
 10
103.5832727643771
 20
44.44362475736192
 30
0.0
 10
103.5832727643771
 20
44.64987475736194
 30
0.0
 10
103.5738977643771
 20
44.73424975736192
 30
0.0
  0
SPLINE
  5
151
330
F0
100
AcDbEntity
  8
LAYER0
  6
Continuous
 62
     7
100
AcDbSpline
210
0.0
220
0.0
230
1.0
 70
     8
 71
     2
 72
     6
 73
     3
 74
     0
 42
0.000000001
 43
0.00000001
 40
0.0
 40
0.0
 40
0.0
 40
1.0
 40
1.0
 40
1.0
 10
103.5738977643771
 20
44.73424975736192
 30
0.0
 10
103.5645227643771
 20
44.81862475736194
 30
0.0
 10
103.5332727643772
 20
44.85612475736193
 30
0.0
  0
SPLINE
  5
152
330
F0
100
AcDbEntity
  8
LAYER0
  6
Continuous
 62
     7
100
AcDbSpline
210
0.0
220
0.0
230
1.0
 70
     8
 71
     2
 72
     6
 73
     3
 74
     0
 42
0.000000001
 43
0.00000001
 40
0.0
 40
0.0
 40
0.0
 40
1.0
 40
1.0
 40
1.0
 10
103.5332727643772
 20
44.85612475736193
 30
0.0
 10
103.5020227643771
 20
44.89362475736193
 30
0.0
 10
103.4301477643771
 20
44.90299975736193
 30
0.0
  0
SPLINE
  5
153
330
F0
100
AcDbEntity
  8
LAYER0
  6
Continuous
 62
     7
100
AcDbSpline
210
0.0
220
0.0
230
1.0
 70
     8
 71
     2
 72
     6
 73
     3
 74
     0
 42
0.000000001
 43
0.00000001
 40
0.0
 40
0.0
 40
0.0
 40
1.0
 40
1.0
 40
1.0
 10
103.4301477643771
 20
44.90299975736193
 30
0.0
 10
103.3582727643771
 20
44.91237475736194
 30
0.0
 10
103.1832727643772
 20
44.91237475736194
 30
0.0
  0
LINE
  5
154
330
F0
100
AcDbEntity
  8
LAYER0
  6
Continuous
 62
     7
100
AcDbLine
 10
103.1832727643772
 20
44.91237475736194
 30
0.0
 11
101.1832727643771
 21
44.91237475736194
 31
0.0
  0
LINE
  5
155
330
F0
100
AcDbEntity
  8
LAYER0
  6
Continuous
 62
     7
100
AcDbLine
 10
101.1832727643771
 20
44.91237475736194
 30
0.0
 11
101.1832727643771
 21
42.11237475736192
 31
0.0
  0
LINE
  5
156
330
F0
100
AcDbEntity
  8
LAYER0
  6
Continuous
 62
     7
100
AcDbLine
 10
101.1832727643771
 20
42.11237475736192
 30
0.0
 11
99.98327276437725
 21
42.11237475736192
 31
0.0
  0
LINE
  5
157
330
F0
100
AcDbEntity
  8
LAYER0
  6
Continuous
 62
     7
100
AcDbLine
 10
99.98327276437725
 20
42.11237475736192
 30
0.0
 11
99.98327276437725
 21
46.11237475736192
 31
0.0
  0
LINE
  5
158
330
F0
100
AcDbEntity
  8
LAYER0
  6
Continuous
 62
     7
100
AcDbLine
 10
99.98327276437725
 20
46.11237475736192
 30
0.0
 11
103.5832727643771
 21
46.11237475736192
 31
0.0
  0
LINE
  5
159
330
F0
100
AcDbEntity
  8
LAYER0
  6
Continuous
 62
     7
100
AcDbLine
 10
103.1832727643772
 20
44.37487475736192
 30
0.0
 11
103.1832727643772
 21
42.11237475736192
 31
0.0
  0
LINE
  5
15A
330
F0
100
AcDbEntity
  8
LAYER0
  6
Continuous
 62
     7
100
AcDbLine
 10
103.1832727643772
 20
42.11237475736192
 30
0.0
 11
101.9832727643773
 21
42.11237475736192
 31
0.0
  0
LINE
  5
15B
330
F0
100
AcDbEntity
  8
LAYER0
  6
Continuous
 62
     7
100
AcDbLine
 10
101.9832727643773
 20
42.11237475736192
 30
0.0
 11
101.9832727643773
 21
44.37487475736192
 31
0.0
  0
LINE
  5
15C
330
F0
100
AcDbEntity
  8
LAYER0
  6
Continuous
 62
     7
100
AcDbLine
 10
101.9832727643773
 20
44.37487475736192
 30
0.0
 11
103.1832727643772
 21
44.37487475736192
 31
0.0
  0
LINE
  5
15D
330
F0
100
AcDbEntity
  8
LAYER0
  6
Continuous
 62
     7
100
AcDbLine
 10
109.0582727643771
 20
43.71237475736194
 30
0.0
 11
107.183272764377
 21
43.71237475736194
 31
0.0
  0
LINE
  5
15E
330
F0
100
AcDbEntity
  8
LAYER0
  6
Continuous
 62
     7
100
AcDbLine
 10
107.183272764377
 20
43.71237475736194
 30
0.0
 11
107.183272764377
 21
43.31237475736195
 31
0.0
  0
LINE
  5
15F
330
F0
100
AcDbEntity
  8
LAYER0
  6
Continuous
 62
     7
100
AcDbLine
 10
107.183272764377
 20
43.31237475736195
 30
0.0
 11
109.0582727643771
 21
43.31237475736195
 31
0.0
  0
LINE
  5
160
330
F0
100
AcDbEntity
  8
LAYER0
  6
Continuous
 62
     7
100
AcDbLine
 10
109.0582727643771
 20
43.31237475736195
 30
0.0
 11
109.0582727643771
 21
42.11237475736192
 31
0.0
  0
LINE
  5
161
330
F0
100
AcDbEntity
  8
LAYER0
  6
Continuous
 62
     7
100
AcDbLine
 10
109.0582727643771
 20
42.11237475736192
 30
0.0
 11
105.9832727643772
 21
42.11237475736192
 31
0.0
  0
LINE
  5
162
330
F0
100
AcDbEntity
  8
LAYER0
  6
Continuous
 62
     7
100
AcDbLine
 10
105.9832727643772
 20
46.11237475736192
 30
0.0
 11
109.0582727643771
 21
46.11237475736192
 31
0.0
  0
LINE
  5
163
330
F0
100
AcDbEntity
  8
LAYER0
  6
Continuous
 62
     7
100
AcDbLine
 10
112.7957727643771
 20
46.11237475736192
 30
0.0
 11
113.4582727643772
 21
46.11237475736192
 31
0.0
  0
LINE
  5
164
330
F0
100
AcDbEntity
  8
LAYER0
  6
Continuous
 62
     7
100
AcDbLine
 10
113.4582727643772
 20
46.11237475736192
 30
0.0
 11
113.4582727643772
 21
44.91237475736194
 31
0.0
  0
LINE
  5
165
330
F0
100
AcDbEntity
  8
LAYER0
  6
Continuous
 62
     7
100
AcDbLine
 10
113.4582727643772
 20
44.91237475736194
 30
0.0
 11
113.2082727643772
 21
44.91237475736194
 31
0.0
  0
SPLINE
  5
166
330
F0
100
AcDbEntity
  8
LAYER0
  6
Continuous
 62
     7
100
AcDbSpline
210
0.0
220
0.0
230
1.0
 70
     8
 71
     2
 72
     6
 73
     3
 74
     0
 42
0.000000001
 43
0.00000001
 40
0.0
 40
0.0
 40
0.0
 40
1.0
 40
1.0
 40
1.0
 10
113.2082727643772
 20
44.91237475736194
 30
0.0
 10
112.8957727643772
 20
44.91237475736194
 30
0.0
 10
112.6176477643771
 20
44.84049975736194
 30
0.0
  0
SPLINE
  5
167
330
F0
100
AcDbEntity
  8
LAYER0
  6
Continuous
 62
     7
100
AcDbSpline
210
0.0
220
0.0
230
1.0
 70
     8
 71
     2
 72
     6
 73
     3
 74
     0
 42
0.000000001
 43
0.00000001
 40
0.0
 40
0.0
 40
0.0
 40
1.0
 40
1.0
 40
1.0
 10
112.6176477643771
 20
44.84049975736194
 30
0.0
 10
112.3395227643771
 20
44.76862475736191
 30
0.0
 10
112.1613977643771
 20
44.59362475736191
 30
0.0
  0
SPLINE
  5
168
330
F0
100
AcDbEntity
  8
LAYER0
  6
Continuous
 62
     7
100
AcDbSpline
210
0.0
220
0.0
230
1.0
 70
     8
 71
     2
 72
     6
 73
     3
 74
     0
 42
0.000000001
 43
0.00000001
 40
0.0
 40
0.0
 40
0.0
 40
1.0
 40
1.0
 40
1.0
 10
112.1613977643771
 20
44.59362475736191
 30
0.0
 10
111.9832727643771
 20
44.41862475736193
 30
0.0
 10
111.9832727643771
 20
44.14362475736193
 30
0.0
  0
SPLINE
  5
169
330
F0
100
AcDbEntity
  8
LAYER0
  6
Continuous
 62
     7
100
AcDbSpline
210
0.0
220
0.0
230
1.0
 70
     8
 71
     2
 72
     6
 73
     3
 74
     0
 42
0.000000001
 43
0.00000001
 40
0.0
 40
0.0
 40
0.0
 40
1.0
 40
1.0
 40
1.0
 10
111.9832727643771
 20
44.14362475736193
 30
0.0
 10
111.9832727643771
 20
43.82487475736193
 30
0.0
 10
112.1426477643771
 20
43.63737475736192
 30
0.0
  0
SPLINE
  5
16A
330
F0
100
AcDbEntity
  8
LAYER0
  6
Continuous
 62
     7
100
AcDbSpline
210
0.0
220
0.0
230
1.0
 70
     8
 71
     2
 72
     6
 73
     3
 74
     0
 42
0.000000001
 43
0.00000001
 40
0.0
 40
0.0
 40
0.0
 40
1.0
 40
1.0
 40
1.0
 10
112.1426477643771
 20
43.63737475736192
 30
0.0
 10
112.302022764377
 20
43.44987475736191
 30
0.0
 10
112.5676477643773
 20
43.38112475736193
 30
0.0
  0
SPLINE
  5
16B
330
F0
100
AcDbEntity
  8
LAYER0
  6
Continuous
 62
     7
100
AcDbSpline
210
0.0
220
0.0
230
1.0
 70
     8
 71
     2
 72
     6
 73
     3
 74
     0
 42
0.000000001
 43
0.00000001
 40
0.0
 40
0.0
 40
0.0
 40
1.0
 40
1.0
 40
1.0
 10
112.5676477643773
 20
43.38112475736193
 30
0.0
 10
112.8332727643772
 20
43.31237475736195
 30
0.0
 10
113.1957727643771
 20
43.31237475736195
 30
0.0
  0
LINE
  5
16C
330
F0
100
AcDbEntity
  8
LAYER0
  6
Continuous
 62
     7
100
AcDbLine
 10
113.1957727643771
 20
43.31237475736195
 30
0.0
 11
113.4582727643772
 21
43.31237475736195
 31
0.0
  0
LINE
  5
16D
330
F0
100
AcDbEntity
  8
LAYER0
  6
Continuous
 62
     7
100
AcDbLine
 10
113.4582727643772
 20
42.11237475736192
 30
0.0
 11
112.5082727643771
 21
42.11237475736192
 31
0.0
  0
SPLINE
  5
16E
330
F0
100
AcDbEntity
  8
LAYER0
  6
Continuous
 62
     7
100
AcDbSpline
210
0.0
220
0.0
230
1.0
 70
     8
 71
     2
 72
     6
 73
     3
 74
     0
 42
0.000000001
 43
0.00000001
 40
0.0
 40
0.0
 40
0.0
 40
1.0
 40
1.0
 40
1.0
 10
112.5082727643771
 20
42.11237475736192
 30
0.0
 10
112.052022764377
 20
42.11237475736192
 30
0.0
 10
111.7176477643772
 20
42.30924975736195
 30
0.0
  0
SPLINE
  5
16F
330
F0
100
AcDbEntity
  8
LAYER0
  6
Continuous
 62
     7
100
AcDbSpline
210
0.0
220
0.0
230
1.0
 70
     8
 71
     2
 72
     6
 73
     3
 74
     0
 42
0.000000001
 43
0.00000001
 40
0.0
 40
0.0
 40
0.0
 40
1.0
 40
1.0
 40
1.0
 10
111.7176477643772
 20
42.30924975736195
 30
0.0
 10
111.3832727643773
 20
42.50612475736195
 30
0.0
 10
111.1801477643771
 20
42.81549975736191
 30
0.0
  0
SPLINE
  5
170
330
F0
100
AcDbEntity
  8
LAYER0
  6
Continuous
 62
     7
100
AcDbSpline
210
0.0
220
0.0
230
1.0
 70
     8
 71
     2
 72
     6
 73
     3
 74
     0
 42
0.000000001
 43
0.00000001
 40
0.0
 40
0.0
 40
0.0
 40
1.0
 40
1.0
 40
1.0
 10
111.1801477643771
 20
42.81549975736191
 30
0.0
 10
110.9770227643772
 20
43.12487475736194
 30
0.0
 10
110.8801477643772
 20
43.47174975736194
 30
0.0
  0
SPLINE
  5
171
330
F0
100
AcDbEntity
  8
LAYER0
  6
Continuous
 62
     7
100
AcDbSpline
210
0.0
220
0.0
230
1.0
 70
     8
 71
     2
 72
     6
 73
     3
 74
     0
 42
0.000000001
 43
0.00000001
 40
0.0
 40
0.0
 40
0.0
 40
1.0
 40
1.0
 40
1.0
 10
110.8801477643772
 20
43.47174975736194
 30
0.0
 10
110.7832727643772
 20
43.81862475736191
 30
0.0
 10
110.7832727643772
 20
44.11862475736196
 30
0.0
  0
SPLINE
  5
172
330
F0
100
AcDbEntity
  8
LAYER0
  6
Continuous
 62
     7
100
AcDbSpline
210
0.0
220
0.0
230
1.0
 70
     8
 71
     2
 72
     6
 73
     3
 74
     0
 42
0.000000001
 43
0.00000001
 40
0.0
 40
0.0
 40
0.0
 40
1.0
 40
1.0
 40
1.0
 10
110.7832727643772
 20
44.11862475736196
 30
0.0
 10
110.7832727643772
 20
44.69362475736195
 30
0.0
 10
111.0270227643771
 20
45.14987475736191
 30
0.0
  0
SPLINE
  5
173
330
F0
100
AcDbEntity
  8
LAYER0
  6
Continuous
 62
     7
100
AcDbSpline
210
0.0
220
0.0
230
1.0
 70
     8
 71
     2
 72
     6
 73
     3
 74
     0
 42
0.000000001
 43
0.00000001
 40
0.0
 40
0.0
 40
0.0
 40
1.0
 40
1.0
 40
1.0
 10
111.0270227643771
 20
45.14987475736191
 30
0.0
 10
111.2707727643771
 20
45.60612475736193
 30
0.0
 10
111.7301477643773
 20
45.85924975736193
 30
0.0
  0
SPLINE
  5
174
330
F0
100
AcDbEntity
  8
LAYER0
  6
Continuous
 62
     7
100
AcDbSpline
210
0.0
220
0.0
230
1.0
 70
     8
 71
     2
 72
     6
 73
     3
 74
     0
 42
0.000000001
 43
0.00000001
 40
0.0
 40
0.0
 40
0.0
 40
1.0
 40
1.0
 40
1.0
 10
111.7301477643773
 20
45.85924975736193
 30
0.0
 10
112.1895227643771
 20
46.11237475736192
 30
0.0
 10
112.7957727643771
 20
46.11237475736192
 30
0.0
  0
LINE
  5
175
330
F0
100
AcDbEntity
  8
LAYER0
  6
Continuous
 62
     7
100
AcDbLine
 10
115.7020227643771
 20
46.11237475736192
 30
0.0
 11
117.0145227643771
 21
46.11237475736192
 31
0.0
  0
LINE
  5
176
330
F0
100
AcDbEntity
  8
LAYER0
  6
Continuous
 62
     7
100
AcDbLine
 10
117.0145227643771
 20
46.11237475736192
 30
0.0
 11
118.3832727643773
 21
42.11237475736192
 31
0.0
  0
LINE
  5
177
330
F0
100
AcDbEntity
  8
LAYER0
  6
Continuous
 62
     7
100
AcDbLine
 10
118.3832727643773
 20
42.11237475736192
 30
0.0
 11
114.3832727643771
 21
42.11237475736192
 31
0.0
  0
LINE
  5
178
330
F0
100
AcDbEntity
  8
LAYER0
  6
Continuous
 62
     7
100
AcDbLine
 10
114.3832727643771
 20
42.11237475736192
 30
0.0
 11
115.1770227643771
 21
44.7748747573619
 31
0.0
  0
LINE
  5
179
330
F0
100
AcDbEntity
  8
LAYER0
  6
Continuous
 62
     7
100
AcDbLine
 10
115.1770227643771
 20
44.7748747573619
 30
0.0
 11
116.2020227643771
 21
44.7748747573619
 31
0.0
  0
LINE
  5
17A
330
F0
100
AcDbEntity
  8
LAYER0
  6
Continuous
 62
     7
100
AcDbLine
 10
116.2020227643771
 20
44.7748747573619
 30
0.0
 11
115.7957727643773
 21
43.31237475736195
 31
0.0
  0
LINE
  5
17B
330
F0
100
AcDbEntity
  8
LAYER0
  6
Continuous
 62
     7
100
AcDbLine
 10
115.7957727643773
 20
43.31237475736195
 30
0.0
 11
116.8707727643771
 21
43.31237475736195
 31
0.0
  0
LINE
  5
17C
330
F0
100
AcDbEntity
  8
LAYER0
  6
Continuous
 62
     7
100
AcDbLine
 10
116.8707727643771
 20
43.31237475736195
 30
0.0
 11
115.7020227643771
 21
46.11237475736192
 31
0.0
  0
LINE
  5
17D
330
F0
100
AcDbEntity
  8
LAYER0
  6
Continuous
 62
     7
100
AcDbLine
 10
119.5832727643771
 20
44.91237475736194
 30
0.0
 11
119.5832727643771
 21
46.11237475736192
 31
0.0
  0
LINE
  5
17E
330
F0
100
AcDbEntity
  8
LAYER0
  6
Continuous
 62
     7
100
AcDbLine
 10
119.5832727643771
 20
46.11237475736192
 30
0.0
 11
121.5082727643771
 21
46.11237475736192
 31
0.0
  0
SPLINE
  5
17F
330
F0
100
AcDbEntity
  8
LAYER0
  6
Continuous
 62
     7
100
AcDbSpline
210
0.0
220
0.0
230
1.0
 70
     8
 71
     2
 72
     6
 73
     3
 74
     0
 42
0.000000001
 43
0.00000001
 40
0.0
 40
0.0
 40
0.0
 40
1.0
 40
1.0
 40
1.0
 10
121.5082727643771
 20
46.11237475736192
 30
0.0
 10
122.4582727643773
 20
46.11237475736192
 30
0.0
 10
122.9395227643773
 20
45.64362475736196
 30
0.0
  0
SPLINE
  5
180
330
F0
100
AcDbEntity
  8
LAYER0
  6
Continuous
 62
     7
100
AcDbSpline
210
0.0
220
0.0
230
1.0
 70
     8
 71
     2
 72
     6
 73
     3
 74
     0
 42
0.000000001
 43
0.00000001
 40
0.0
 40
0.0
 40
0.0
 40
1.0
 40
1.0
 40
1.0
 10
122.9395227643773
 20
45.64362475736196
 30
0.0
 10
123.2520227643773
 20
45.34362475736191
 30
0.0
 10
123.414522764377
 20
44.95299975736193
 30
0.0
  0
SPLINE
  5
181
330
F0
100
AcDbEntity
  8
LAYER0
  6
Continuous
 62
     7
100
AcDbSpline
210
0.0
220
0.0
230
1.0
 70
     8
 71
     2
 72
     6
 73
     3
 74
     0
 42
0.000000001
 43
0.00000001
 40
0.0
 40
0.0
 40
0.0
 40
1.0
 40
1.0
 40
1.0
 10
123.414522764377
 20
44.95299975736193
 30
0.0
 10
123.5770227643771
 20
44.56237475736192
 30
0.0
 10
123.5832727643773
 20
44.15612475736193
 30
0.0
  0
LINE
  5
182
330
F0
100
AcDbEntity
  8
LAYER0
  6
Continuous
 62
     7
100
AcDbLine
 10
113.4582727643772
 20
43.31237475736195
 30
0.0
 11
113.4582727643772
 21
42.11237475736192
 31
0.0
  0
SPLINE
  5
183
330
F0
100
AcDbEntity
  8
LAYER0
  6
Continuous
 62
     7
100
AcDbSpline
210
0.0
220
0.0
230
1.0
 70
     8
 71
     2
 72
     6
 73
     3
 74
     0
 42
0.000000001
 43
0.00000001
 40
0.0
 40
0.0
 40
0.0
 40
1.0
 40
1.0
 40
1.0
 10
123.4801477643771
 20
43.47799975736193
 30
0.0
 10
123.3770227643773
 20
43.14987475736191
 30
0.0
 10
123.1957727643772
 20
42.89362475736193
 30
0.0
  0
SPLINE
  5
184
330
F0
100
AcDbEntity
  8
LAYER0
  6
Continuous
 62
     7
100
AcDbSpline
210
0.0
220
0.0
230
1.0
 70
     8
 71
     2
 72
     6
 73
     3
 74
     0
 42
0.000000001
 43
0.00000001
 40
0.0
 40
0.0
 40
0.0
 40
1.0
 40
1.0
 40
1.0
 10
123.1957727643772
 20
42.89362475736193
 30
0.0
 10
123.0145227643771
 20
42.63737475736191
 30
0.0
 10
122.7707727643773
 20
42.49362475736191
 30
0.0
  0
SPLINE
  5
185
330
F0
100
AcDbEntity
  8
LAYER0
  6
Continuous
 62
     7
100
AcDbSpline
210
0.0
220
0.0
230
1.0
 70
     8
 71
     2
 72
     6
 73
     3
 74
     0
 42
0.000000001
 43
0.00000001
 40
0.0
 40
0.0
 40
0.0
 40
1.0
 40
1.0
 40
1.0
 10
122.7707727643773
 20
42.49362475736191
 30
0.0
 10
122.4395227643772
 20
42.31237475736195
 30
0.0
 10
122.0301477643773
 20
42.21237475736191
 30
0.0
  0
SPLINE
  5
186
330
F0
100
AcDbEntity
  8
LAYER0
  6
Continuous
 62
     7
100
AcDbSpline
210
0.0
220
0.0
230
1.0
 70
     8
 71
     2
 72
     6
 73
     3
 74
     0
 42
0.000000001
 43
0.00000001
 40
0.0
 40
0.0
 40
0.0
 40
1.0
 40
1.0
 40
1.0
 10
122.0301477643773
 20
42.21237475736191
 30
0.0
 10
121.6207727643773
 20
42.11237475736192
 30
0.0
 10
121.2457727643773
 20
42.11237475736192
 30
0.0
  0
LINE
  5
187
330
F0
100
AcDbEntity
  8
LAYER0
  6
Continuous
 62
     7
100
AcDbLine
 10
121.2457727643773
 20
42.11237475736192
 30
0.0
 11
119.5832727643771
 21
42.11237475736192
 31
0.0
  0
LINE
  5
188
330
F0
100
AcDbEntity
  8
LAYER0
  6
Continuous
 62
     7
100
AcDbLine
 10
119.5832727643771
 20
42.11237475736192
 30
0.0
 11
119.5832727643771
 21
44.38737475736192
 31
0.0
  0
LINE
  5
189
330
F0
100
AcDbEntity
  8
LAYER0
  6
Continuous
 62
     7
100
AcDbLine
 10
119.5832727643771
 20
44.38737475736192
 30
0.0
 11
120.7832727643773
 21
44.38737475736192
 31
0.0
  0
LINE
  5
18A
330
F0
100
AcDbEntity
  8
LAYER0
  6
Continuous
 62
     7
100
AcDbLine
 10
120.7832727643773
 20
44.38737475736192
 30
0.0
 11
120.7832727643773
 21
43.31237475736195
 31
0.0
  0
SPLINE
  5
18B
330
F0
100
AcDbEntity
  8
LAYER0
  6
Continuous
 62
     7
100
AcDbSpline
210
0.0
220
0.0
230
1.0
 70
     8
 71
     2
 72
     6
 73
     3
 74
     0
 42
0.000000001
 43
0.00000001
 40
0.0
 40
0.0
 40
0.0
 40
1.0
 40
1.0
 40
1.0
 10
120.7832727643773
 20
43.31237475736195
 30
0.0
 10
121.3395227643771
 20
43.31237475736195
 30
0.0
 10
121.6988977643772
 20
43.42799975736193
 30
0.0
  0
SPLINE
  5
18C
330
F0
100
AcDbEntity
  8
LAYER0
  6
Continuous
 62
     7
100
AcDbSpline
210
0.0
220
0.0
230
1.0
 70
     8
 71
     2
 72
     6
 73
     3
 74
     0
 42
0.000000001
 43
0.00000001
 40
0.0
 40
0.0
 40
0.0
 40
1.0
 40
1.0
 40
1.0
 10
121.6988977643772
 20
43.42799975736193
 30
0.0
 10
122.0582727643773
 20
43.54362475736191
 30
0.0
 10
122.2207727643771
 20
43.72799975736193
 30
0.0
  0
SPLINE
  5
18D
330
F0
100
AcDbEntity
  8
LAYER0
  6
Continuous
 62
     7
100
AcDbSpline
210
0.0
220
0.0
230
1.0
 70
     8
 71
     2
 72
     6
 73
     3
 74
     0
 42
0.000000001
 43
0.00000001
 40
0.0
 40
0.0
 40
0.0
 40
1.0
 40
1.0
 40
1.0
 10
122.2207727643771
 20
43.72799975736193
 30
0.0
 10
122.3832727643771
 20
43.91237475736191
 30
0.0
 10
122.3832727643771
 20
44.13112475736193
 30
0.0
  0
SPLINE
  5
18E
330
F0
100
AcDbEntity
  8
LAYER0
  6
Continuous
 62
     7
100
AcDbSpline
210
0.0
220
0.0
230
1.0
 70
     8
 71
     2
 72
     6
 73
     3
 74
     0
 42
0.000000001
 43
0.00000001
 40
0.0
 40
0.0
 40
0.0
 40
1.0
 40
1.0
 40
1.0
 10
122.3832727643771
 20
44.13112475736193
 30
0.0
 10
122.3832727643771
 20
44.33737475736195
 30
0.0
 10
122.2676477643772
 20
44.51549975736192
 30
0.0
  0
SPLINE
  5
18F
330
F0
100
AcDbEntity
  8
LAYER0
  6
Continuous
 62
     7
100
AcDbSpline
210
0.0
220
0.0
230
1.0
 70
     8
 71
     2
 72
     6
 73
     3
 74
     0
 42
0.000000001
 43
0.00000001
 40
0.0
 40
0.0
 40
0.0
 40
1.0
 40
1.0
 40
1.0
 10
122.2676477643772
 20
44.51549975736192
 30
0.0
 10
122.1520227643772
 20
44.69362475736195
 30
0.0
 10
121.9457727643771
 20
44.80299975736192
 30
0.0
  0
SPLINE
  5
190
330
F0
100
AcDbEntity
  8
LAYER0
  6
Continuous
 62
     7
100
AcDbSpline
210
0.0
220
0.0
230
1.0
 70
     8
 71
     2
 72
     6
 73
     3
 74
     0
 42
0.000000001
 43
0.00000001
 40
0.0
 40
0.0
 40
0.0
 40
1.0
 40
1.0
 40
1.0
 10
121.9457727643771
 20
44.80299975736192
 30
0.0
 10
121.7395227643771
 20
44.91237475736194
 30
0.0
 10
121.470772764377
 20
44.91237475736194
 30
0.0
  0
LINE
  5
191
330
F0
100
AcDbEntity
  8
LAYER0
  6
Continuous
 62
     7
100
AcDbLine
 10
121.470772764377
 20
44.91237475736194
 30
0.0
 11
119.5832727643771
 21
44.91237475736194
 31
0.0
  0
LINE
  5
192
330
F0
100
AcDbEntity
  8
LAYER0
  6
Continuous
 62
     7
100
AcDbLine
 10
126.1020227643772
 20
46.11237475736192
 30
0.0
 11
127.4145227643772
 21
46.11237475736192
 31
0.0
  0
LINE
  5
193
330
F0
100
AcDbEntity
  8
LAYER0
  6
Continuous
 62
     7
100
AcDbLine
 10
127.4145227643772
 20
46.11237475736192
 30
0.0
 11
128.783272764377
 21
42.11237475736192
 31
0.0
  0
LINE
  5
194
330
F0
100
AcDbEntity
  8
LAYER0
  6
Continuous
 62
     7
100
AcDbLine
 10
128.783272764377
 20
42.11237475736192
 30
0.0
 11
124.7832727643772
 21
42.11237475736192
 31
0.0
  0
LINE
  5
195
330
F0
100
AcDbEntity
  8
LAYER0
  6
Continuous
 62
     7
100
AcDbLine
 10
124.7832727643772
 20
42.11237475736192
 30
0.0
 11
125.5770227643771
 21
44.7748747573619
 31
0.0
  0
LINE
  5
196
330
F0
100
AcDbEntity
  8
LAYER0
  6
Continuous
 62
     7
100
AcDbLine
 10
125.5770227643771
 20
44.7748747573619
 30
0.0
 11
126.6020227643772
 21
44.7748747573619
 31
0.0
  0
LINE
  5
197
330
F0
100
AcDbEntity
  8
LAYER0
  6
Continuous
 62
     7
100
AcDbLine
 10
126.6020227643772
 20
44.7748747573619
 30
0.0
 11
126.1957727643773
 21
43.31237475736195
 31
0.0
  0
LINE
  5
198
330
F0
100
AcDbEntity
  8
LAYER0
  6
Continuous
 62
     7
100
AcDbLine
 10
126.1957727643773
 20
43.31237475736195
 30
0.0
 11
127.2707727643771
 21
43.31237475736195
 31
0.0
  0
LINE
  5
199
330
F0
100
AcDbEntity
  8
LAYER0
  6
Continuous
 62
     7
100
AcDbLine
 10
127.2707727643771
 20
43.31237475736195
 30
0.0
 11
126.1020227643772
 21
46.11237475736192
 31
0.0
  0
LINE
  5
19A
330
F0
100
AcDbEntity
  8
LAYER0
  6
Continuous
 62
     7
100
AcDbLine
 10
133.0457727643773
 20
46.11237475736192
 30
0.0
 11
133.0457727643773
 21
44.91237475736194
 31
0.0
  0
LINE
  5
19B
330
F0
100
AcDbEntity
  8
LAYER0
  6
Continuous
 62
     7
100
AcDbLine
 10
133.0457727643773
 20
44.91237475736194
 30
0.0
 11
130.2082727643772
 21
44.91237475736194
 31
0.0
  0
LINE
  5
19C
330
F0
100
AcDbEntity
  8
LAYER0
  6
Continuous
 62
     7
100
AcDbLine
 10
130.2082727643772
 20
44.91237475736194
 30
0.0
 11
130.2082727643772
 21
46.11237475736192
 31
0.0
  0
LINE
  5
19D
330
F0
100
AcDbEntity
  8
LAYER0
  6
Continuous
 62
     7
100
AcDbLine
 10
130.2082727643772
 20
46.11237475736192
 30
0.0
 11
133.0457727643773
 21
46.11237475736192
 31
0.0
  0
LINE
  5
19E
330
F0
100
AcDbEntity
  8
LAYER0
  6
Continuous
 62
     7
100
AcDbLine
 10
131.583272764377
 20
44.7748747573619
 30
0.0
 11
131.583272764377
 21
43.58737475736192
 31
0.0
  0
SPLINE
  5
19F
330
F0
100
AcDbEntity
  8
LAYER0
  6
Continuous
 62
     7
100
AcDbSpline
210
0.0
220
0.0
230
1.0
 70
     8
 71
     2
 72
     6
 73
     3
 74
     0
 42
0.000000001
 43
0.00000001
 40
0.0
 40
0.0
 40
0.0
 40
1.0
 40
1.0
 40
1.0
 10
131.583272764377
 20
43.58737475736192
 30
0.0
 10
131.583272764377
 20
43.47487475736193
 30
0.0
 10
131.6176477643773
 20
43.41862475736193
 30
0.0
  0
SPLINE
  5
1A0
330
F0
100
AcDbEntity
  8
LAYER0
  6
Continuous
 62
     7
100
AcDbSpline
210
0.0
220
0.0
230
1.0
 70
     8
 71
     2
 72
     6
 73
     3
 74
     0
 42
0.000000001
 43
0.00000001
 40
0.0
 40
0.0
 40
0.0
 40
1.0
 40
1.0
 40
1.0
 10
131.6176477643773
 20
43.41862475736193
 30
0.0
 10
131.6520227643772
 20
43.36237475736195
 30
0.0
 10
131.7645227643771
 20
43.33737475736192
 30
0.0
  0
SPLINE
  5
1A1
330
F0
100
AcDbEntity
  8
LAYER0
  6
Continuous
 62
     7
100
AcDbSpline
210
0.0
220
0.0
230
1.0
 70
     8
 71
     2
 72
     6
 73
     3
 74
     0
 42
0.000000001
 43
0.00000001
 40
0.0
 40
0.0
 40
0.0
 40
1.0
 40
1.0
 40
1.0
 10
131.7645227643771
 20
43.33737475736192
 30
0.0
 10
131.8770227643773
 20
43.31237475736195
 30
0.0
 10
132.1207727643771
 20
43.31237475736195
 30
0.0
  0
LINE
  5
1A2
330
F0
100
AcDbEntity
  8
LAYER0
  6
Continuous
 62
     7
100
AcDbLine
 10
132.1207727643771
 20
43.31237475736195
 30
0.0
 11
132.8582727643773
 21
43.31237475736195
 31
0.0
  0
LINE
  5
1A3
330
F0
100
AcDbEntity
  8
LAYER0
  6
Continuous
 62
     7
100
AcDbLine
 10
132.8582727643773
 20
43.31237475736195
 30
0.0
 11
132.8582727643773
 21
42.11237475736192
 31
0.0
  0
LINE
  5
1A4
330
F0
100
AcDbEntity
  8
LAYER0
  6
Continuous
 62
     7
100
AcDbLine
 10
132.8582727643773
 20
42.11237475736192
 30
0.0
 11
131.4207727643772
 21
42.11237475736192
 31
0.0
  0
SPLINE
  5
1A5
330
F0
100
AcDbEntity
  8
LAYER0
  6
Continuous
 62
     7
100
AcDbSpline
210
0.0
220
0.0
230
1.0
 70
     8
 71
     2
 72
     6
 73
     3
 74
     0
 42
0.000000001
 43
0.00000001
 40
0.0
 40
0.0
 40
0.0
 40
1.0
 40
1.0
 40
1.0
 10
131.4207727643772
 20
42.11237475736192
 30
0.0
 10
130.9332727643771
 20
42.11237475736192
 30
0.0
 10
130.7082727643773
 20
42.29362475736191
 30
0.0
  0
SPLINE
  5
1A6
330
F0
100
AcDbEntity
  8
LAYER0
  6
Continuous
 62
     7
100
AcDbSpline
210
0.0
220
0.0
230
1.0
 70
     8
 71
     2
 72
     6
 73
     3
 74
     0
 42
0.000000001
 43
0.00000001
 40
0.0
 40
0.0
 40
0.0
 40
1.0
 40
1.0
 40
1.0
 10
130.7082727643773
 20
42.29362475736191
 30
0.0
 10
130.4832727643772
 20
42.47487475736193
 30
0.0
 10
130.4332727643771
 20
42.75299975736192
 30
0.0
  0
SPLINE
  5
1A7
330
F0
100
AcDbEntity
  8
LAYER0
  6
Continuous
 62
     7
100
AcDbSpline
210
0.0
220
0.0
230
1.0
 70
     8
 71
     2
 72
     6
 73
     3
 74
     0
 42
0.000000001
 43
0.00000001
 40
0.0
 40
0.0
 40
0.0
 40
1.0
 40
1.0
 40
1.0
 10
130.4332727643771
 20
42.75299975736192
 30
0.0
 10
130.3832727643772
 20
43.03112475736194
 30
0.0
 10
130.3832727643772
 20
43.53737475736192
 30
0.0
  0
LINE
  5
1A8
330
F0
100
AcDbEntity
  8
LAYER0
  6
Continuous
 62
     7
100
AcDbLine
 10
130.3832727643772
 20
43.53737475736192
 30
0.0
 11
130.3832727643772
 21
44.7748747573619
 31
0.0
  0
LINE
  5
1A9
330
F0
100
AcDbEntity
  8
LAYER0
  6
Continuous
 62
     7
100
AcDbLine
 10
130.3832727643772
 20
44.7748747573619
 30
0.0
 11
131.583272764377
 21
44.7748747573619
 31
0.0
  0
LINE
  5
1AA
330
F0
100
AcDbEntity
  8
LAYER0
  6
Continuous
 62
     7
100
AcDbLine
 10
105.9832727643772
 20
45.11237475736192
 30
0.0
 11
109.0582727643771
 21
45.11237475736192
 31
0.0
  0
LINE
  5
1AB
330
F0
100
AcDbEntity
  8
LAYER0
  6
Continuous
 62
     7
100
AcDbLine
 10
105.9832727643772
 20
44.71237475736194
 30
0.0
 11
109.0582727643771
 21
44.71237475736194
 31
0.0
  0
LINE
  5
1AC
330
F0
100
AcDbEntity
  8
LAYER0
  6
Continuous
 62
     7
100
AcDbLine
 10
109.0582727643771
 20
44.71237475736194
 30
0.0
 11
109.0582727643771
 21
43.71237475736194
 31
0.0
  0
LINE
  5
1AD
330
F0
100
AcDbEntity
  8
LAYER0
  6
Continuous
 62
     7
100
AcDbLine
 10
105.9832727643772
 20
42.11237475736192
 30
0.0
 11
105.9832727643772
 21
44.71237475736194
 31
0.0
  0
LINE
  5
1AE
330
F0
100
AcDbEntity
  8
LAYER0
  6
Continuous
 62
     7
100
AcDbLine
 10
105.9832727643772
 20
45.11237475736192
 30
0.0
 11
105.9832727643772
 21
46.11237475736192
 31
0.0
  0
LINE
  5
1AF
330
F0
100
AcDbEntity
  8
LAYER0
  6
Continuous
 62
     7
100
AcDbLine
 10
109.0582727643771
 20
46.11237475736192
 30
0.0
 11
109.0582727643771
 21
45.11237475736192
 31
0.0
  0
LINE
  5
1B0
330
F0
100
AcDbEntity
  8
LAYER0
  6
Continuous
 62
   136
100
AcDbLine
 10
104.4928284666646
 20
42.11237475736192
 30
0.0
 11
104.4928284666646
 21
45.81233477204923
 31
0.0
  0
LINE
  5
1B1
330
F0
100
AcDbEntity
  8
LAYER0
  6
Continuous
 62
   136
100
AcDbLine
 10
104.1594951333312
 20
42.11237475736192
 30
0.0
 11
104.1594951333312
 21
46.0241167387364
 31
0.0
  0
LINE
  5
1B2
330
F0
100
AcDbEntity
  8
LAYER0
  6
Continuous
 62
   136
100
AcDbLine
 10
103.8261617999977
 20
42.11237475736192
 30
0.0
 11
103.8261617999977
 21
46.0995426379182
 31
0.0
  0
LINE
  5
1B3
330
F0
100
AcDbEntity
  8
LAYER0
  6
Continuous
 62
   136
100
AcDbLine
 10
103.4928284666643
 20
44.8861494236238
 30
0.0
 11
103.4928284666643
 21
46.11237475736192
 31
0.0
  0
LINE
  5
1B4
330
F0
100
AcDbEntity
  8
LAYER0
  6
Continuous
 62
   136
100
AcDbLine
 10
103.1594951333309
 20
44.91237475736194
 30
0.0
 11
103.1594951333309
 21
46.11237475736192
 31
0.0
  0
LINE
  5
1B5
330
F0
100
AcDbEntity
  8
LAYER0
  6
Continuous
 62
   136
100
AcDbLine
 10
102.8261617999974
 20
44.91237475736194
 30
0.0
 11
102.8261617999974
 21
46.11237475736192
 31
0.0
  0
LINE
  5
1B6
330
F0
100
AcDbEntity
  8
LAYER0
  6
Continuous
 62
   136
100
AcDbLine
 10
102.492828466664
 20
44.91237475736194
 30
0.0
 11
102.492828466664
 21
46.11237475736192
 31
0.0
  0
LINE
  5
1B7
330
F0
100
AcDbEntity
  8
LAYER0
  6
Continuous
 62
   136
100
AcDbLine
 10
102.1594951333305
 20
44.91237475736194
 30
0.0
 11
102.1594951333305
 21
46.11237475736192
 31
0.0
  0
LINE
  5
1B8
330
F0
100
AcDbEntity
  8
LAYER0
  6
Continuous
 62
   136
100
AcDbLine
 10
101.8261617999971
 20
44.91237475736194
 30
0.0
 11
101.8261617999971
 21
46.11237475736192
 31
0.0
  0
LINE
  5
1B9
330
F0
100
AcDbEntity
  8
LAYER0
  6
Continuous
 62
   136
100
AcDbLine
 10
101.4928284666636
 20
44.91237475736194
 30
0.0
 11
101.4928284666636
 21
46.11237475736192
 31
0.0
  0
LINE
  5
1BA
330
F0
100
AcDbEntity
  8
LAYER0
  6
Continuous
 62
   136
100
AcDbLine
 10
101.1594951333302
 20
42.11237475736192
 30
0.0
 11
101.1594951333302
 21
46.11237475736192
 31
0.0
  0
LINE
  5
1BB
330
F0
100
AcDbEntity
  8
LAYER0
  6
Continuous
 62
   136
100
AcDbLine
 10
100.8261617999967
 20
42.11237475736192
 30
0.0
 11
100.8261617999967
 21
46.11237475736192
 31
0.0
  0
LINE
  5
1BC
330
F0
100
AcDbEntity
  8
LAYER0
  6
Continuous
 62
   136
100
AcDbLine
 10
100.4928284666633
 20
42.11237475736192
 30
0.0
 11
100.4928284666633
 21
46.11237475736192
 31
0.0
  0
LINE
  5
1BD
330
F0
100
AcDbEntity
  8
LAYER0
  6
Continuous
 62
   136
100
AcDbLine
 10
100.1594951333298
 20
42.11237475736192
 30
0.0
 11
100.1594951333298
 21
46.11237475736192
 31
0.0
  0
LINE
  5
1BE
330
F0
100
AcDbEntity
  8
LAYER0
  6
Continuous
 62
   136
100
AcDbLine
 10
103.1594951333315
 20
42.11237475736192
 30
0.0
 11
103.1594951333315
 21
44.37487475736192
 31
0.0
  0
LINE
  5
1BF
330
F0
100
AcDbEntity
  8
LAYER0
  6
Continuous
 62
   136
100
AcDbLine
 10
102.826161799998
 20
42.11237475736192
 30
0.0
 11
102.826161799998
 21
44.37487475736192
 31
0.0
  0
LINE
  5
1C0
330
F0
100
AcDbEntity
  8
LAYER0
  6
Continuous
 62
   136
100
AcDbLine
 10
102.4928284666646
 20
42.11237475736192
 30
0.0
 11
102.4928284666646
 21
44.37487475736192
 31
0.0
  0
LINE
  5
1C1
330
F0
100
AcDbEntity
  8
LAYER0
  6
Continuous
 62
   136
100
AcDbLine
 10
102.1594951333311
 20
42.11237475736192
 30
0.0
 11
102.1594951333311
 21
44.37487475736192
 31
0.0
  0
LINE
  5
1C2
330
F0
100
AcDbEntity
  8
LAYER0
  6
Continuous
 62
   136
100
AcDbLine
 10
108.8261617999982
 20
45.11237475736192
 30
0.0
 11
108.8261617999982
 21
46.11237475736192
 31
0.0
  0
LINE
  5
1C3
330
F0
100
AcDbEntity
  8
LAYER0
  6
Continuous
 62
   136
100
AcDbLine
 10
108.4928284666648
 20
45.11237475736192
 30
0.0
 11
108.4928284666648
 21
46.11237475736192
 31
0.0
  0
LINE
  5
1C4
330
F0
100
AcDbEntity
  8
LAYER0
  6
Continuous
 62
   136
100
AcDbLine
 10
108.1594951333313
 20
45.11237475736192
 30
0.0
 11
108.1594951333313
 21
46.11237475736192
 31
0.0
  0
LINE
  5
1C5
330
F0
100
AcDbEntity
  8
LAYER0
  6
Continuous
 62
   136
100
AcDbLine
 10
107.8261617999979
 20
45.11237475736192
 30
0.0
 11
107.8261617999979
 21
46.11237475736192
 31
0.0
  0
LINE
  5
1C6
330
F0
100
AcDbEntity
  8
LAYER0
  6
Continuous
 62
   136
100
AcDbLine
 10
107.4928284666644
 20
45.11237475736192
 30
0.0
 11
107.4928284666644
 21
46.11237475736192
 31
0.0
  0
LINE
  5
1C7
330
F0
100
AcDbEntity
  8
LAYER0
  6
Continuous
 62
   136
100
AcDbLine
 10
107.159495133331
 20
45.11237475736192
 30
0.0
 11
107.159495133331
 21
46.11237475736192
 31
0.0
  0
LINE
  5
1C8
330
F0
100
AcDbEntity
  8
LAYER0
  6
Continuous
 62
   136
100
AcDbLine
 10
106.8261617999975
 20
45.11237475736192
 30
0.0
 11
106.8261617999975
 21
46.11237475736192
 31
0.0
  0
LINE
  5
1C9
330
F0
100
AcDbEntity
  8
LAYER0
  6
Continuous
 62
   136
100
AcDbLine
 10
106.4928284666641
 20
45.11237475736192
 30
0.0
 11
106.4928284666641
 21
46.11237475736192
 31
0.0
  0
LINE
  5
1CA
330
F0
100
AcDbEntity
  8
LAYER0
  6
Continuous
 62
   136
100
AcDbLine
 10
106.1594951333307
 20
45.11237475736192
 30
0.0
 11
106.1594951333307
 21
46.11237475736192
 31
0.0
  0
LINE
  5
1CB
330
F0
100
AcDbEntity
  8
LAYER0
  6
Continuous
 62
   136
100
AcDbLine
 10
108.8261617999982
 20
42.11237475736192
 30
0.0
 11
108.8261617999982
 21
43.31237475736195
 31
0.0
  0
LINE
  5
1CC
330
F0
100
AcDbEntity
  8
LAYER0
  6
Continuous
 62
   136
100
AcDbLine
 10
108.8261617999982
 20
43.71237475736194
 30
0.0
 11
108.8261617999982
 21
44.71237475736194
 31
0.0
  0
LINE
  5
1CD
330
F0
100
AcDbEntity
  8
LAYER0
  6
Continuous
 62
   136
100
AcDbLine
 10
108.4928284666648
 20
42.11237475736192
 30
0.0
 11
108.4928284666648
 21
43.31237475736195
 31
0.0
  0
LINE
  5
1CE
330
F0
100
AcDbEntity
  8
LAYER0
  6
Continuous
 62
   136
100
AcDbLine
 10
108.4928284666648
 20
43.71237475736194
 30
0.0
 11
108.4928284666648
 21
44.71237475736194
 31
0.0
  0
LINE
  5
1CF
330
F0
100
AcDbEntity
  8
LAYER0
  6
Continuous
 62
   136
100
AcDbLine
 10
108.1594951333313
 20
42.11237475736192
 30
0.0
 11
108.1594951333313
 21
43.31237475736195
 31
0.0
  0
LINE
  5
1D0
330
F0
100
AcDbEntity
  8
LAYER0
  6
Continuous
 62
   136
100
AcDbLine
 10
108.1594951333313
 20
43.71237475736194
 30
0.0
 11
108.1594951333313
 21
44.71237475736194
 31
0.0
  0
LINE
  5
1D1
330
F0
100
AcDbEntity
  8
LAYER0
  6
Continuous
 62
   136
100
AcDbLine
 10
107.8261617999979
 20
42.11237475736192
 30
0.0
 11
107.8261617999979
 21
43.31237475736195
 31
0.0
  0
LINE
  5
1D2
330
F0
100
AcDbEntity
  8
LAYER0
  6
Continuous
 62
   136
100
AcDbLine
 10
107.8261617999979
 20
43.71237475736194
 30
0.0
 11
107.8261617999979
 21
44.71237475736194
 31
0.0
  0
LINE
  5
1D3
330
F0
100
AcDbEntity
  8
LAYER0
  6
Continuous
 62
   136
100
AcDbLine
 10
107.4928284666644
 20
42.11237475736192
 30
0.0
 11
107.4928284666644
 21
43.31237475736195
 31
0.0
  0
LINE
  5
1D4
330
F0
100
AcDbEntity
  8
LAYER0
  6
Continuous
 62
   136
100
AcDbLine
 10
107.4928284666644
 20
43.71237475736194
 30
0.0
 11
107.4928284666644
 21
44.71237475736194
 31
0.0
  0
LINE
  5
1D5
330
F0
100
AcDbEntity
  8
LAYER0
  6
Continuous
 62
   136
100
AcDbLine
 10
107.159495133331
 20
42.11237475736192
 30
0.0
 11
107.159495133331
 21
44.71237475736194
 31
0.0
  0
LINE
  5
1D6
330
F0
100
AcDbEntity
  8
LAYER0
  6
Continuous
 62
   136
100
AcDbLine
 10
106.8261617999975
 20
42.11237475736192
 30
0.0
 11
106.8261617999975
 21
44.71237475736194
 31
0.0
  0
LINE
  5
1D7
330
F0
100
AcDbEntity
  8
LAYER0
  6
Continuous
 62
   136
100
AcDbLine
 10
106.4928284666641
 20
42.11237475736192
 30
0.0
 11
106.4928284666641
 21
44.71237475736194
 31
0.0
  0
LINE
  5
1D8
330
F0
100
AcDbEntity
  8
LAYER0
  6
Continuous
 62
   136
100
AcDbLine
 10
106.1594951333307
 20
42.11237475736192
 30
0.0
 11
106.1594951333307
 21
44.71237475736194
 31
0.0
  0
LINE
  5
1D9
330
F0
100
AcDbEntity
  8
LAYER0
  6
Continuous
 62
   136
100
AcDbLine
 10
113.1594951333312
 20
42.11237475736192
 30
0.0
 11
113.1594951333312
 21
43.31255028765003
 31
0.0
  0
LINE
  5
1DA
330
F0
100
AcDbEntity
  8
LAYER0
  6
Continuous
 62
   136
100
AcDbLine
 10
113.1594951333312
 20
44.91193303399209
 30
0.0
 11
113.1594951333312
 21
46.11237475736192
 31
0.0
  0
LINE
  5
1DB
330
F0
100
AcDbEntity
  8
LAYER0
  6
Continuous
 62
   136
100
AcDbLine
 10
112.8261617999978
 20
42.11237475736192
 30
0.0
 11
112.8261617999978
 21
43.33319310357138
 31
0.0
  0
LINE
  5
1DC
330
F0
100
AcDbEntity
  8
LAYER0
  6
Continuous
 62
   136
100
AcDbLine
 10
112.8261617999978
 20
44.88353423688128
 30
0.0
 11
112.8261617999978
 21
46.11237475736192
 31
0.0
  0
LINE
  5
1DD
330
F0
100
AcDbEntity
  8
LAYER0
  6
Continuous
 62
   136
100
AcDbLine
 10
112.4928284666643
 20
42.11243312661549
 30
0.0
 11
112.4928284666643
 21
43.40356884696851
 31
0.0
  0
LINE
  5
1DE
330
F0
100
AcDbEntity
  8
LAYER0
  6
Continuous
 62
   136
100
AcDbLine
 10
112.4928284666643
 20
44.80116550985704
 30
0.0
 11
112.4928284666643
 21
46.09553760705849
 31
0.0
  0
LINE
  5
1DF
330
F0
100
AcDbEntity
  8
LAYER0
  6
Continuous
 62
   136
100
AcDbLine
 10
112.1594951333309
 20
42.14451447699489
 30
0.0
 11
112.1594951333309
 21
43.61821554898417
 31
0.0
  0
LINE
  5
1E0
330
F0
100
AcDbEntity
  8
LAYER0
  6
Continuous
 62
   136
100
AcDbLine
 10
112.1594951333309
 20
44.59174398661069
 30
0.0
 11
112.1594951333309
 21
46.03208825629569
 31
0.0
  0
LINE
  5
1E1
330
F0
100
AcDbEntity
  8
LAYER0
  6
Continuous
 62
   136
100
AcDbLine
 10
111.8261617999975
 20
42.25204248631849
 30
0.0
 11
111.8261617999975
 21
45.90862308280956
 31
0.0
  0
LINE
  5
1E2
330
F0
100
AcDbEntity
  8
LAYER0
  6
Continuous
 62
   136
100
AcDbLine
 10
111.492828466664
 20
42.46647577006936
 30
0.0
 11
111.492828466664
 21
45.70391890197624
 31
0.0
  0
LINE
  5
1E3
330
F0
100
AcDbEntity
  8
LAYER0
  6
Continuous
 62
   136
100
AcDbLine
 10
111.1594951333306
 20
42.84748762948358
 30
0.0
 11
111.1594951333306
 21
45.36136533571279
 31
0.0
  0
LINE
  5
1E4
330
F0
100
AcDbEntity
  8
LAYER0
  6
Continuous
 62
   136
100
AcDbLine
 10
110.8261617999971
 20
43.69865009394739
 30
0.0
 11
110.8261617999971
 21
44.58011556887929
 31
0.0
  0
LINE
  5
1E5
330
F0
100
AcDbEntity
  8
LAYER0
  6
Continuous
 62
   136
100
AcDbLine
 10
118.1594951333314
 20
42.11237475736192
 30
0.0
 11
118.1594951333314
 21
42.76633678416254
 31
0.0
  0
LINE
  5
1E6
330
F0
100
AcDbEntity
  8
LAYER0
  6
Continuous
 62
   136
100
AcDbLine
 10
117.826161799998
 20
42.11237475736192
 30
0.0
 11
117.826161799998
 21
43.74046159390403
 31
0.0
  0
LINE
  5
1E7
330
F0
100
AcDbEntity
  8
LAYER0
  6
Continuous
 62
   136
100
AcDbLine
 10
117.4928284666645
 20
42.11237475736192
 30
0.0
 11
117.4928284666645
 21
44.71458640364549
 31
0.0
  0
LINE
  5
1E8
330
F0
100
AcDbEntity
  8
LAYER0
  6
Continuous
 62
   136
100
AcDbLine
 10
117.1594951333311
 20
42.11237475736192
 30
0.0
 11
117.1594951333311
 21
45.68871121338698
 31
0.0
  0
LINE
  5
1E9
330
F0
100
AcDbEntity
  8
LAYER0
  6
Continuous
 62
   136
100
AcDbLine
 10
116.8261617999976
 20
42.11237475736192
 30
0.0
 11
116.8261617999976
 21
43.31237475736195
 31
0.0
  0
LINE
  5
1EA
330
F0
100
AcDbEntity
  8
LAYER0
  6
Continuous
 62
   136
100
AcDbLine
 10
116.8261617999976
 20
43.41925022282718
 30
0.0
 11
116.8261617999976
 21
46.11237475736192
 31
0.0
  0
LINE
  5
1EB
330
F0
100
AcDbEntity
  8
LAYER0
  6
Continuous
 62
   136
100
AcDbLine
 10
116.4928284666642
 20
42.11237475736192
 30
0.0
 11
116.4928284666642
 21
43.31237475736195
 31
0.0
  0
LINE
  5
1EC
330
F0
100
AcDbEntity
  8
LAYER0
  6
Continuous
 62
   136
100
AcDbLine
 10
116.4928284666642
 20
44.217824197872
 30
0.0
 11
116.4928284666642
 21
46.11237475736192
 31
0.0
  0
LINE
  5
1ED
330
F0
100
AcDbEntity
  8
LAYER0
  6
Continuous
 62
   136
100
AcDbLine
 10
116.1594951333308
 20
42.11237475736192
 30
0.0
 11
116.1594951333308
 21
43.31237475736195
 31
0.0
  0
LINE
  5
1EE
330
F0
100
AcDbEntity
  8
LAYER0
  6
Continuous
 62
   136
100
AcDbLine
 10
116.1594951333308
 20
44.62177528559495
 30
0.0
 11
116.1594951333308
 21
44.7748747573619
 31
0.0
  0
LINE
  5
1EF
330
F0
100
AcDbEntity
  8
LAYER0
  6
Continuous
 62
   136
100
AcDbLine
 10
116.1594951333308
 20
45.01639817291682
 30
0.0
 11
116.1594951333308
 21
46.11237475736192
 31
0.0
  0
LINE
  5
1F0
330
F0
100
AcDbEntity
  8
LAYER0
  6
Continuous
 62
   136
100
AcDbLine
 10
115.8261617999973
 20
42.11237475736192
 30
0.0
 11
115.8261617999973
 21
43.31237475736195
 31
0.0
  0
LINE
  5
1F1
330
F0
100
AcDbEntity
  8
LAYER0
  6
Continuous
 62
   136
100
AcDbLine
 10
115.8261617999973
 20
43.42177528559419
 30
0.0
 11
115.8261617999973
 21
44.7748747573619
 31
0.0
  0
LINE
  5
1F2
330
F0
100
AcDbEntity
  8
LAYER0
  6
Continuous
 62
   136
100
AcDbLine
 10
115.8261617999973
 20
45.81497214796164
 30
0.0
 11
115.8261617999973
 21
46.11237475736192
 31
0.0
  0
LINE
  5
1F3
330
F0
100
AcDbEntity
  8
LAYER0
  6
Continuous
 62
   136
100
AcDbLine
 10
115.4928284666639
 20
42.11237475736192
 30
0.0
 11
115.4928284666639
 21
44.7748747573619
 31
0.0
  0
LINE
  5
1F4
330
F0
100
AcDbEntity
  8
LAYER0
  6
Continuous
 62
   136
100
AcDbLine
 10
115.1594951333304
 20
42.11237475736192
 30
0.0
 11
115.1594951333304
 21
44.71608128629182
 31
0.0
  0
LINE
  5
1F5
330
F0
100
AcDbEntity
  8
LAYER0
  6
Continuous
 62
   136
100
AcDbLine
 10
114.826161799997
 20
42.11237475736192
 30
0.0
 11
114.826161799997
 21
43.597971050071
 31
0.0
  0
LINE
  5
1F6
330
F0
100
AcDbEntity
  8
LAYER0
  6
Continuous
 62
   136
100
AcDbLine
 10
114.4928284666635
 20
42.11237475736192
 30
0.0
 11
114.4928284666635
 21
42.47986081385015
 31
0.0
  0
LINE
  5
1F7
330
F0
100
AcDbEntity
  8
LAYER0
  6
Continuous
 62
   136
100
AcDbLine
 10
123.4928284666648
 20
43.51976120418181
 30
0.0
 11
123.4928284666648
 21
44.73449295348959
 31
0.0
  0
LINE
  5
1F8
330
F0
100
AcDbEntity
  8
LAYER0
  6
Continuous
 62
   136
100
AcDbLine
 10
123.1594951333313
 20
42.8442836681016
 30
0.0
 11
123.1594951333313
 21
45.39710673248872
 31
0.0
  0
LINE
  5
1F9
330
F0
100
AcDbEntity
  8
LAYER0
  6
Continuous
 62
   136
100
AcDbLine
 10
122.8261617999979
 20
42.52827819630124
 30
0.0
 11
122.8261617999979
 21
45.74249281148097
 31
0.0
  0
LINE
  5
1FA
330
F0
100
AcDbEntity
  8
LAYER0
  6
Continuous
 62
   136
100
AcDbLine
 10
122.4928284666644
 20
42.36144387338651
 30
0.0
 11
122.4928284666644
 21
45.93796119089909
 31
0.0
  0
LINE
  5
1FB
330
F0
100
AcDbEntity
  8
LAYER0
  6
Continuous
 62
   136
100
AcDbLine
 10
122.159495133331
 20
42.24655525265268
 30
0.0
 11
122.159495133331
 21
43.66700318882262
 31
0.0
  0
LINE
  5
1FC
330
F0
100
AcDbEntity
  8
LAYER0
  6
Continuous
 62
   136
100
AcDbLine
 10
122.159495133331
 20
44.64813853710646
 30
0.0
 11
122.159495133331
 21
46.04539648950283
 31
0.0
  0
LINE
  5
1FD
330
F0
100
AcDbEntity
  8
LAYER0
  6
Continuous
 62
   136
100
AcDbLine
 10
121.8261617999975
 20
42.16835531205894
 30
0.0
 11
121.8261617999975
 21
43.47354591913534
 31
0.0
  0
LINE
  5
1FE
330
F0
100
AcDbEntity
  8
LAYER0
  6
Continuous
 62
   136
100
AcDbLine
 10
121.8261617999975
 20
44.85539474214213
 30
0.0
 11
121.8261617999975
 21
46.0980420067222
 31
0.0
  0
LINE
  5
1FF
330
F0
100
AcDbEntity
  8
LAYER0
  6
Continuous
 62
   136
100
AcDbLine
 10
121.4928284666641
 20
42.12291137877859
 30
0.0
 11
121.4928284666641
 21
43.374473960811
 31
0.0
  0
LINE
  5
200
330
F0
100
AcDbEntity
  8
LAYER0
  6
Continuous
 62
   136
100
AcDbLine
 10
121.4928284666641
 20
44.91218746310187
 30
0.0
 11
121.4928284666641
 21
46.11237475736192
 31
0.0
  0
LINE
  5
201
330
F0
100
AcDbEntity
  8
LAYER0
  6
Continuous
 62
   136
100
AcDbLine
 10
121.1594951333306
 20
42.11237475736192
 30
0.0
 11
121.1594951333306
 21
43.32746757813323
 31
0.0
  0
LINE
  5
202
330
F0
100
AcDbEntity
  8
LAYER0
  6
Continuous
 62
   136
100
AcDbLine
 10
121.1594951333306
 20
44.91237475736194
 30
0.0
 11
121.1594951333306
 21
46.11237475736192
 31
0.0
  0
LINE
  5
203
330
F0
100
AcDbEntity
  8
LAYER0
  6
Continuous
 62
   136
100
AcDbLine
 10
120.8261617999972
 20
42.11237475736192
 30
0.0
 11
120.8261617999972
 21
43.31254920700166
 31
0.0
  0
LINE
  5
204
330
F0
100
AcDbEntity
  8
LAYER0
  6
Continuous
 62
   136
100
AcDbLine
 10
120.8261617999972
 20
44.91237475736194
 30
0.0
 11
120.8261617999972
 21
46.11237475736192
 31
0.0
  0
LINE
  5
205
330
F0
100
AcDbEntity
  8
LAYER0
  6
Continuous
 62
   136
100
AcDbLine
 10
120.4928284666638
 20
42.11237475736192
 30
0.0
 11
120.4928284666638
 21
44.38737475736192
 31
0.0
  0
LINE
  5
206
330
F0
100
AcDbEntity
  8
LAYER0
  6
Continuous
 62
   136
100
AcDbLine
 10
120.4928284666638
 20
44.91237475736194
 30
0.0
 11
120.4928284666638
 21
46.11237475736192
 31
0.0
  0
LINE
  5
207
330
F0
100
AcDbEntity
  8
LAYER0
  6
Continuous
 62
   136
100
AcDbLine
 10
120.1594951333303
 20
42.11237475736192
 30
0.0
 11
120.1594951333303
 21
44.38737475736192
 31
0.0
  0
LINE
  5
208
330
F0
100
AcDbEntity
  8
LAYER0
  6
Continuous
 62
   136
100
AcDbLine
 10
120.1594951333303
 20
44.91237475736194
 30
0.0
 11
120.1594951333303
 21
46.11237475736192
 31
0.0
  0
LINE
  5
209
330
F0
100
AcDbEntity
  8
LAYER0
  6
Continuous
 62
   136
100
AcDbLine
 10
119.8261617999969
 20
42.11237475736192
 30
0.0
 11
119.8261617999969
 21
44.38737475736192
 31
0.0
  0
LINE
  5
20A
330
F0
100
AcDbEntity
  8
LAYER0
  6
Continuous
 62
   136
100
AcDbLine
 10
119.8261617999969
 20
44.91237475736194
 30
0.0
 11
119.8261617999969
 21
46.11237475736192
 31
0.0
  0
LINE
  5
20B
330
F0
100
AcDbEntity
  8
LAYER0
  6
Continuous
 62
   136
100
AcDbLine
 10
128.4928284666647
 20
42.11237475736192
 30
0.0
 11
128.4928284666647
 21
42.96116174611052
 31
0.0
  0
LINE
  5
20C
330
F0
100
AcDbEntity
  8
LAYER0
  6
Continuous
 62
   136
100
AcDbLine
 10
128.1594951333312
 20
42.11237475736192
 30
0.0
 11
128.1594951333312
 21
43.9352865558522
 31
0.0
  0
LINE
  5
20D
330
F0
100
AcDbEntity
  8
LAYER0
  6
Continuous
 62
   136
100
AcDbLine
 10
127.8261617999978
 20
42.11237475736192
 30
0.0
 11
127.8261617999978
 21
44.90941136559388
 31
0.0
  0
LINE
  5
20E
330
F0
100
AcDbEntity
  8
LAYER0
  6
Continuous
 62
   136
100
AcDbLine
 10
127.4928284666643
 20
42.11237475736192
 30
0.0
 11
127.4928284666643
 21
45.88353617533556
 31
0.0
  0
LINE
  5
20F
330
F0
100
AcDbEntity
  8
LAYER0
  6
Continuous
 62
   136
100
AcDbLine
 10
127.1594951333309
 20
42.11237475736192
 30
0.0
 11
127.1594951333309
 21
43.31237475736195
 31
0.0
  0
LINE
  5
210
330
F0
100
AcDbEntity
  8
LAYER0
  6
Continuous
 62
   136
100
AcDbLine
 10
127.1594951333309
 20
43.57896501783644
 30
0.0
 11
127.1594951333309
 21
46.11237475736192
 31
0.0
  0
LINE
  5
211
330
F0
100
AcDbEntity
  8
LAYER0
  6
Continuous
 62
   136
100
AcDbLine
 10
126.8261617999975
 20
42.11237475736192
 30
0.0
 11
126.8261617999975
 21
43.31237475736195
 31
0.0
  0
LINE
  5
212
330
F0
100
AcDbEntity
  8
LAYER0
  6
Continuous
 62
   136
100
AcDbLine
 10
126.8261617999975
 20
44.37753899288126
 30
0.0
 11
126.8261617999975
 21
46.11237475736192
 31
0.0
  0
LINE
  5
213
330
F0
100
AcDbEntity
  8
LAYER0
  6
Continuous
 62
   136
100
AcDbLine
 10
126.492828466664
 20
42.11237475736192
 30
0.0
 11
126.492828466664
 21
43.31237475736195
 31
0.0
  0
LINE
  5
214
330
F0
100
AcDbEntity
  8
LAYER0
  6
Continuous
 62
   136
100
AcDbLine
 10
126.492828466664
 20
44.38177528559438
 30
0.0
 11
126.492828466664
 21
44.7748747573619
 31
0.0
  0
LINE
  5
215
330
F0
100
AcDbEntity
  8
LAYER0
  6
Continuous
 62
   136
100
AcDbLine
 10
126.492828466664
 20
45.17611296792607
 30
0.0
 11
126.492828466664
 21
46.11237475736192
 31
0.0
  0
LINE
  5
216
330
F0
100
AcDbEntity
  8
LAYER0
  6
Continuous
 62
   136
100
AcDbLine
 10
126.1594951333305
 20
42.11237475736192
 30
0.0
 11
126.1594951333305
 21
44.7748747573619
 31
0.0
  0
LINE
  5
217
330
F0
100
AcDbEntity
  8
LAYER0
  6
Continuous
 62
   136
100
AcDbLine
 10
126.1594951333305
 20
45.97468694297087
 30
0.0
 11
126.1594951333305
 21
46.11237475736192
 31
0.0
  0
LINE
  5
218
330
F0
100
AcDbEntity
  8
LAYER0
  6
Continuous
 62
   136
100
AcDbLine
 10
125.8261617999971
 20
42.11237475736192
 30
0.0
 11
125.8261617999971
 21
44.7748747573619
 31
0.0
  0
LINE
  5
219
330
F0
100
AcDbEntity
  8
LAYER0
  6
Continuous
 62
   136
100
AcDbLine
 10
125.4928284666637
 20
42.11237475736192
 30
0.0
 11
125.4928284666637
 21
44.49245923904725
 31
0.0
  0
LINE
  5
21A
330
F0
100
AcDbEntity
  8
LAYER0
  6
Continuous
 62
   136
100
AcDbLine
 10
125.1594951333302
 20
42.11237475736192
 30
0.0
 11
125.1594951333302
 21
43.37434900282643
 31
0.0
  0
LINE
  5
21B
330
F0
100
AcDbEntity
  8
LAYER0
  6
Continuous
 62
   136
100
AcDbLine
 10
124.8261617999968
 20
42.11237475736192
 30
0.0
 11
124.8261617999968
 21
42.2562387666056
 31
0.0
  0
LINE
  5
21C
330
F0
100
AcDbEntity
  8
LAYER0
  6
Continuous
 62
   136
100
AcDbLine
 10
132.8261617999983
 20
44.91237475736194
 30
0.0
 11
132.8261617999983
 21
46.11237475736192
 31
0.0
  0
LINE
  5
21D
330
F0
100
AcDbEntity
  8
LAYER0
  6
Continuous
 62
   136
100
AcDbLine
 10
132.4928284666648
 20
44.91237475736194
 30
0.0
 11
132.4928284666648
 21
46.11237475736192
 31
0.0
  0
LINE
  5
21E
330
F0
100
AcDbEntity
  8
LAYER0
  6
Continuous
 62
   136
100
AcDbLine
 10
132.1594951333313
 20
44.91237475736194
 30
0.0
 11
132.1594951333313
 21
46.11237475736192
 31
0.0
  0
LINE
  5
21F
330
F0
100
AcDbEntity
  8
LAYER0
  6
Continuous
 62
   136
100
AcDbLine
 10
131.8261617999979
 20
44.91237475736194
 30
0.0
 11
131.8261617999979
 21
46.11237475736192
 31
0.0
  0
LINE
  5
220
330
F0
100
AcDbEntity
  8
LAYER0
  6
Continuous
 62
   136
100
AcDbLine
 10
131.4928284666645
 20
44.91237475736194
 30
0.0
 11
131.4928284666645
 21
46.11237475736192
 31
0.0
  0
LINE
  5
221
330
F0
100
AcDbEntity
  8
LAYER0
  6
Continuous
 62
   136
100
AcDbLine
 10
131.159495133331
 20
44.91237475736194
 30
0.0
 11
131.159495133331
 21
46.11237475736192
 31
0.0
  0
LINE
  5
222
330
F0
100
AcDbEntity
  8
LAYER0
  6
Continuous
 62
   136
100
AcDbLine
 10
130.8261617999975
 20
44.91237475736194
 30
0.0
 11
130.8261617999975
 21
46.11237475736192
 31
0.0
  0
LINE
  5
223
330
F0
100
AcDbEntity
  8
LAYER0
  6
Continuous
 62
   136
100
AcDbLine
 10
130.4928284666642
 20
44.91237475736194
 30
0.0
 11
130.4928284666642
 21
46.11237475736192
 31
0.0
  0
LINE
  5
224
330
F0
100
AcDbEntity
  8
LAYER0
  6
Continuous
 62
   136
100
AcDbLine
 10
132.8261617999983
 20
42.11237475736192
 30
0.0
 11
132.8261617999983
 21
43.31237475736195
 31
0.0
  0
LINE
  5
225
330
F0
100
AcDbEntity
  8
LAYER0
  6
Continuous
 62
   136
100
AcDbLine
 10
132.4928284666648
 20
42.11237475736192
 30
0.0
 11
132.4928284666648
 21
43.31237475736195
 31
0.0
  0
LINE
  5
226
330
F0
100
AcDbEntity
  8
LAYER0
  6
Continuous
 62
   136
100
AcDbLine
 10
132.1594951333313
 20
42.11237475736192
 30
0.0
 11
132.1594951333313
 21
43.31237475736195
 31
0.0
  0
LINE
  5
227
330
F0
100
AcDbEntity
  8
LAYER0
  6
Continuous
 62
   136
100
AcDbLine
 10
131.8261617999979
 20
42.11237475736192
 30
0.0
 11
131.8261617999979
 21
43.32680675539209
 31
0.0
  0
LINE
  5
228
330
F0
100
AcDbEntity
  8
LAYER0
  6
Continuous
 62
   136
100
AcDbLine
 10
131.4928284666645
 20
42.11237475736192
 30
0.0
 11
131.4928284666645
 21
44.7748747573619
 31
0.0
  0
LINE
  5
229
330
F0
100
AcDbEntity
  8
LAYER0
  6
Continuous
 62
   136
100
AcDbLine
 10
131.159495133331
 20
42.1276973667329
 30
0.0
 11
131.159495133331
 21
44.7748747573619
 31
0.0
  0
LINE
  5
22A
330
F0
100
AcDbEntity
  8
LAYER0
  6
Continuous
 62
   136
100
AcDbLine
 10
130.8261617999975
 20
42.21959267996812
 30
0.0
 11
130.8261617999975
 21
44.7748747573619
 31
0.0
  0
LINE
  5
22B
330
F0
100
AcDbEntity
  8
LAYER0
  6
Continuous
 62
   136
100
AcDbLine
 10
130.4928284666642
 20
42.56343377096213
 30
0.0
 11
130.4928284666642
 21
44.7748747573619
 31
0.0
  0
LINE
  5
22C
330
F0
100
AcDbEntity
  8
LAYER0
  6
Continuous
 62
     7
100
AcDbLine
 10
4.3333333333333
 20
52.00000000000006
 30
0.0
 11
135.666666666667
 21
52.00000000000006
 31
0.0
  0
LINE
  5
22D
330
F0
100
AcDbEntity
  8
LAYER0
  6
Continuous
 62
     7
100
AcDbLine
 10
4.3333333333333
 20
23.33333333333336
 30
0.0
 11
135.666666666667
 21
23.33333333333336
 31
0.0
  0
LINE
  5
22E
330
F0
100
AcDbEntity
  8
LAYER0
  6
Continuous
 62
     7
100
AcDbLine
 10
4.3333333333333
 20
13.33333333333335
 30
0.0
 11
135.666666666667
 21
13.33333333333335
 31
0.0
  0
LINE
  5
22F
330
F0
100
AcDbEntity
  8
LAYER0
  6
Continuous
 62
     7
100
AcDbLine
 10
4.3333333333333
 20
13.33333333333335
 30
0.0
 11
135.666666666667
 21
13.33333333333335
 31
0.0
  0
TEXT
  5
230
330
F0
100
AcDbEntity
  8
LAYER0
  6
Continuous
 62
     7
100
AcDbText
 10
7.200786753380581
 20
14.74113737570686
 30
0.0
 40
4.0
  1
Verbindungsmuffe_X78
 41
0.9317667250538109
  7
VISI1-courier new
 72
     5
 11
85.46919165790072
 21
14.74113737570686
 31
0.0
100
AcDbText
  0
ENDBLK
  5
F2
330
F0
100
AcDbEntity
  8
0
100
AcDbBlockEnd
  0
BLOCK
  5
233
330
232
100
AcDbEntity
  8
0
100
AcDbBlockBegin
  2
Plotview 2
 70
     0
 10
0.0
 20
0.0
 30
0.0
  3
Plotview 2
  1

  0
LINE
  5
235
330
232
100
AcDbEntity
  8
LAYER0
  6
Continuous
 62
     4
100
AcDbLine
 10
54.13170710511405
 20
170.2448772451559
 30
0.0
 11
54.13170710511405
 21
148.3448772451559
 31
0.0
  0
LINE
  5
236
330
232
100
AcDbEntity
  8
LAYER0
  6
Continuous
 62
     4
100
AcDbLine
 10
58.13170710511406
 20
170.2448772451559
 30
0.0
 11
54.13170710511405
 21
170.2448772451559
 31
0.0
  0
LINE
  5
237
330
232
100
AcDbEntity
  8
LAYER0
  6
Continuous
 62
     4
100
AcDbLine
 10
58.13170710511406
 20
148.3448772451559
 30
0.0
 11
54.13170710511405
 21
148.3448772451559
 31
0.0
  0
LINE
  5
238
330
232
100
AcDbEntity
  8
LAYER0
  6
Continuous
 62
     4
100
AcDbLine
 10
58.13170710511406
 20
170.2448772451559
 30
0.0
 11
58.13170710511406
 21
148.3448772451559
 31
0.0
  0
LINE
  5
239
330
232
100
AcDbEntity
  8
LAYER0
  6
Continuous
 62
   136
100
AcDbLine
 10
78.13170710511405
 20
168.9948772451559
 30
0.0
 11
58.13170710511406
 21
168.9948772451559
 31
0.0
  0
LINE
  5
23A
330
232
100
AcDbEntity
  8
LAYER0
  6
Continuous
 62
   136
100
AcDbLine
 10
58.13170710511406
 20
149.5948772451559
 30
0.0
 11
78.13170710511405
 21
149.5948772451559
 31
0.0
  0
LINE
  5
23B
330
232
100
AcDbEntity
  8
LAYER0
  6
Continuous
 62
     4
100
AcDbLine
 10
78.13170710511405
 20
168.9948772451559
 30
0.0
 11
78.13170710511405
 21
149.5948772451559
 31
0.0
  0
LINE
  5
23C
330
232
100
AcDbEntity
  8
LAYER0
  6
Continuous
 62
     4
100
AcDbLine
 10
58.13170710511406
 20
169.2948772451559
 30
0.0
 11
78.13170710511405
 21
169.2948772451559
 31
0.0
  0
LINE
  5
23D
330
232
100
AcDbEntity
  8
LAYER0
  6
Continuous
 62
     4
100
AcDbLine
 10
78.13170710511405
 20
169.2948772451559
 30
0.0
 11
78.13170710511405
 21
168.9948772451559
 31
0.0
  0
LINE
  5
23E
330
232
100
AcDbEntity
  8
LAYER0
  6
Continuous
 62
     4
100
AcDbLine
 10
78.13170710511405
 20
149.2948772451559
 30
0.0
 11
58.13170710511406
 21
149.2948772451559
 31
0.0
  0
LINE
  5
23F
330
232
100
AcDbEntity
  8
LAYER0
  6
Continuous
 62
     4
100
AcDbLine
 10
78.13170710511405
 20
149.5948772451559
 30
0.0
 11
78.13170710511405
 21
149.2948772451559
 31
0.0
  0
LINE
  5
240
330
232
100
AcDbEntity
  8
LAYER0
  6
Continuous
 62
   136
100
AcDbLine
 10
54.13170710511405
 20
168.9948772451559
 30
0.0
 11
34.13170710511405
 21
168.9948772451559
 31
0.0
  0
LINE
  5
241
330
232
100
AcDbEntity
  8
LAYER0
  6
Continuous
 62
   136
100
AcDbLine
 10
34.13170710511405
 20
149.5948772451559
 30
0.0
 11
54.13170710511405
 21
149.5948772451559
 31
0.0
  0
LINE
  5
242
330
232
100
AcDbEntity
  8
LAYER0
  6
Continuous
 62
     4
100
AcDbLine
 10
34.13170710511405
 20
168.9948772451559
 30
0.0
 11
34.13170710511405
 21
149.5948772451559
 31
0.0
  0
LINE
  5
243
330
232
100
AcDbEntity
  8
LAYER0
  6
Continuous
 62
     4
100
AcDbLine
 10
34.13170710511405
 20
169.2948772451559
 30
0.0
 11
54.13170710511405
 21
169.2948772451559
 31
0.0
  0
LINE
  5
244
330
232
100
AcDbEntity
  8
LAYER0
  6
Continuous
 62
     4
100
AcDbLine
 10
34.13170710511405
 20
168.9948772451559
 30
0.0
 11
34.13170710511405
 21
169.2948772451559
 31
0.0
  0
LINE
  5
245
330
232
100
AcDbEntity
  8
LAYER0
  6
Continuous
 62
     4
100
AcDbLine
 10
54.13170710511405
 20
149.2948772451559
 30
0.0
 11
34.13170710511405
 21
149.2948772451559
 31
0.0
  0
LINE
  5
246
330
232
100
AcDbEntity
  8
LAYER0
  6
Continuous
 62
     4
100
AcDbLine
 10
34.13170710511405
 20
149.2948772451559
 30
0.0
 11
34.13170710511405
 21
149.5948772451559
 31
0.0
  0
ENDBLK
  5
234
330
232
100
AcDbEntity
  8
0
100
AcDbBlockEnd
  0
BLOCK
  5
249
330
248
100
AcDbEntity
  8
0
100
AcDbBlockBegin
  2
Plotview 3
 70
     0
 10
0.0
 20
0.0
 30
0.0
  3
Plotview 3
  1

  0
LINE
  5
24B
330
248
100
AcDbEntity
  8
LAYER0
  6
Continuous
 62
   136
100
AcDbLine
 10
86.50275242474191
 20
84.92888742824432
 30
0.0
 11
100.6448880484729
 21
93.09377470329578
 31
0.0
  0
LWPOLYLINE
  5
24C
330
248
100
AcDbEntity
  8
LAYER0
  6
Continuous
 62
     4
100
AcDbPolyline
 90
       10
 70
   128
 43
0.0
 10
-100.6448880484729
 20
93.09377470329578
 10
-100.6817243895277
 20
93.06878609324613
 10
-100.7174414770081
 20
93.03711406309132
 10
-100.7509540652925
 20
92.99972095143359
 10
-100.7812438913519
 20
92.95774292904039
 10
-100.8073906141555
 20
92.91245547687078
 10
-100.8285997787678
 20
92.86523463123216
 10
-100.8442269554593
 20
92.81751517361366
 10
-100.8537973203773
 20
92.77074703557705
 10
-100.8570200828288
 20
92.72635124332017
210
0.0
220
0.0
230
-1.0
  0
LINE
  5
24D
330
248
100
AcDbEntity
  8
LAYER0
  6
Continuous
 62
   136
100
AcDbLine
 10
100.8570200828288
 20
92.72635124188679
 30
0.0
 11
86.71488445909787
 21
84.56146396683532
 31
0.0
  0
LWPOLYLINE
  5
24E
330
248
100
AcDbEntity
  8
LAYER0
  6
Continuous
 62
     4
100
AcDbPolyline
 90
       10
 70
   128
 43
0.0
 10
-86.71488445909787
 20
84.56146396683532
 10
-86.71166169686185
 20
84.60585975898952
 10
-86.70209133215286
 20
84.65262789697016
 10
-86.68646415565755
 20
84.70034735458103
 10
-86.66525499122244
 20
84.74756820026064
 10
-86.6391082685718
 20
84.79285565251858
 10
-86.60881844263658
 20
84.83483367504478
 10
-86.57530585444354
 20
84.87222678687615
 10
-86.53958876701924
 20
84.90389881723999
 10
-86.50275242598322
 20
84.92888742752764
210
0.0
220
0.0
230
-1.0
  0
LWPOLYLINE
  5
24F
330
248
100
AcDbEntity
  8
LAYER0
  6
Continuous
 62
     4
100
AcDbPolyline
 90
       10
 70
   128
 43
0.0
 10
-72.57274883536692
 20
76.88624139423942
 10
-72.57597159760294
 20
76.84184560208521
 10
-72.58554196231194
 20
76.79507746410462
 10
-72.60116913880725
 20
76.74735800649373
 10
-72.62237830324234
 20
76.70013716081412
 10
-72.64852502589298
 20
76.65484970855617
 10
-72.67881485182821
 20
76.61287168602996
 10
-72.71232744002124
 20
76.5754785741986
 10
-72.74804452744556
 20
76.54380654383476
 10
-72.78488086848158
 20
76.51881793354713
210
0.0
220
0.0
230
-1.0
  0
LINE
  5
250
330
248
100
AcDbEntity
  8
LAYER0
  6
Continuous
 62
     4
100
AcDbLine
 10
72.57274883536692
 20
76.88624139423942
 30
0.0
 11
72.57274883536692
 21
92.72635124188682
 31
0.0
  0
LWPOLYLINE
  5
251
330
248
100
AcDbEntity
  8
LAYER0
  6
Continuous
 62
     4
100
AcDbPolyline
 90
        6
 70
   128
 43
0.0
 10
-72.78488086972288
 20
92.84882808504423
 10
-72.74804452866802
 20
92.86637400872281
 10
-72.7123274411877
 20
92.875944122022
 10
-72.67881485290324
 20
92.87724764189404
 10
-72.6485250268439
 20
92.87024496154757
 10
-72.63488195180119
 20
92.86368617863154
210
0.0
220
0.0
230
-1.0
  0
LINE
  5
252
330
248
100
AcDbEntity
  8
LAYER0
  6
Continuous
 62
     4
100
AcDbLine
 10
72.78488086972288
 20
92.84882808504423
 30
0.0
 11
86.50275242474191
 21
84.92888742824432
 31
0.0
  0
LINE
  5
253
330
248
100
AcDbEntity
  8
LAYER0
  6
Continuous
 62
     4
100
AcDbLine
 10
86.71488445909787
 20
84.56146396683532
 30
0.0
 11
86.71488445909787
 21
68.72135411918796
 31
0.0
  0
LWPOLYLINE
  5
254
330
248
100
AcDbEntity
  8
LAYER0
  6
Continuous
 62
     4
100
AcDbPolyline
 90
        6
 70
   128
 43
0.0
 10
-86.50275242474191
 20
68.59887727603052
 10
-86.53958876579678
 20
68.58133135235195
 10
-86.57530585327709
 20
68.57176123905278
 10
-86.60881844156155
 20
68.57045771918071
 10
-86.6391082676209
 20
68.5774603995272
 10
-86.6527513426636
 20
68.58401918244321
210
0.0
220
0.0
230
-1.0
  0
LINE
  5
255
330
248
100
AcDbEntity
  8
LAYER0
  6
Continuous
 62
     4
100
AcDbLine
 10
86.50275242474191
 20
68.59887727603052
 30
0.0
 11
72.78488086972288
 21
76.51881793283043
 31
0.0
  0
LINE
  5
256
330
248
100
AcDbEntity
  8
LAYER0
  6
Continuous
 62
     4
100
AcDbLine
 10
73.38632168583496
 20
77.05290990358763
 30
0.0
 11
73.38632168583496
 21
91.62025875997149
 31
0.0
  0
LINE
  5
257
330
248
100
AcDbEntity
  8
LAYER0
  6
Continuous
 62
     4
100
AcDbLine
 10
85.90131160862984
 20
69.82744660110328
 30
0.0
 11
73.38632168583496
 21
77.05290990358763
 31
0.0
  0
LINE
  5
258
330
248
100
AcDbEntity
  8
LAYER0
  6
Continuous
 62
     4
100
AcDbLine
 10
85.90131160862984
 20
84.3947954574871
 30
0.0
 11
85.90131160862984
 21
69.82744660110328
 31
0.0
  0
LINE
  5
259
330
248
100
AcDbEntity
  8
LAYER0
  6
Continuous
 62
     4
100
AcDbLine
 10
73.38632168583496
 20
91.62025875997149
 30
0.0
 11
85.90131160862984
 21
84.3947954574871
 31
0.0
  0
LINE
  5
25A
330
248
100
AcDbEntity
  8
LAYER0
  6
Continuous
 62
     4
100
AcDbLine
 10
100.8570200828288
 20
92.72635124188679
 30
0.0
 11
100.8570200828288
 21
76.88624139423942
 31
0.0
  0
LINE
  5
25B
330
248
100
AcDbEntity
  8
LAYER0
  6
Continuous
 62
   136
100
AcDbLine
 10
86.71488445909787
 20
68.72135411918796
 30
0.0
 11
100.8570200828288
 21
76.88624139423942
 31
0.0
  0
LINE
  5
25C
330
248
100
AcDbEntity
  8
LAYER0
  6
Continuous
 62
   136
100
AcDbLine
 10
86.92701649345383
 20
101.0137153600957
 30
0.0
 11
72.78488086972288
 21
92.84882808504423
 31
0.0
  0
LINE
  5
25D
330
248
100
AcDbEntity
  8
LAYER0
  6
Continuous
 62
     4
100
AcDbLine
 10
86.92701649345383
 20
101.0137153600957
 30
0.0
 11
100.6448880484729
 21
93.09377470329578
 31
0.0
  0
LINE
  5
25E
330
248
100
AcDbEntity
  8
LAYER0
  6
Continuous
 62
     4
100
AcDbLine
 10
101.5287715249561
 20
75.47778361416111
 30
0.0
 11
100.0609939837009
 21
76.32519722184074
 31
0.0
  0
LINE
  5
25F
330
248
100
AcDbEntity
  8
LAYER0
  6
Continuous
 62
     4
100
AcDbLine
 10
86.04313301697066
 20
100.6048690816573
 30
0.0
 11
86.04313301697066
 21
102.2996962970166
 31
0.0
  0
LINE
  5
260
330
248
100
AcDbEntity
  8
LAYER0
  6
Continuous
 62
     4
100
AcDbLine
 10
86.04313301697066
 20
102.2996962970166
 30
0.0
 11
101.5287715249561
 21
93.35914473083521
 31
0.0
  0
LINE
  5
261
330
248
100
AcDbEntity
  8
LAYER0
  6
Continuous
 62
     4
100
AcDbLine
 10
101.5287715249561
 20
93.35914473083521
 30
0.0
 11
101.5287715249561
 21
75.47778361416111
 31
0.0
  0
LWPOLYLINE
  5
262
330
248
100
AcDbEntity
  8
LAYER0
  6
Continuous
 62
     4
100
AcDbPolyline
 90
        6
 70
   128
 43
0.0
 10
100.8570200828288
 20
76.88624139423942
 10
100.8537973205928
 20
76.84556689158089
 10
100.8442269558838
 20
76.80984955258978
 10
100.8285997793885
 20
76.78017463052946
 10
100.8073906149534
 20
76.75744378288378
 10
100.7948869663946
 20
76.74890645749467
  0
LINE
  5
263
330
248
100
AcDbEntity
  8
LAYER0
  6
Continuous
 62
     4
100
AcDbLine
 10
104.3571986497022
 20
94.9921221858455
 30
0.0
 11
101.5287715249561
 21
93.35914473083521
 31
0.0
  0
LINE
  5
264
330
248
100
AcDbEntity
  8
LAYER0
  6
Continuous
 62
     4
100
AcDbLine
 10
104.3571986497022
 20
94.9921221858455
 30
0.0
 11
104.3571986497022
 21
77.1107610691714
 31
0.0
  0
LINE
  5
265
330
248
100
AcDbEntity
  8
LAYER0
  6
Continuous
 62
     4
100
AcDbLine
 10
104.3571986497022
 20
77.1107610691714
 30
0.0
 11
101.5287715249561
 21
75.47778361416111
 31
0.0
  0
LINE
  5
266
330
248
100
AcDbEntity
  8
LAYER0
  6
Continuous
 62
     4
100
AcDbLine
 10
88.87156014171686
 20
103.9326737520268
 30
0.0
 11
86.04313301697066
 21
102.2996962970166
 31
0.0
  0
LINE
  5
267
330
248
100
AcDbEntity
  8
LAYER0
  6
Continuous
 62
     4
100
AcDbLine
 10
88.87156014171686
 20
103.9326737520268
 30
0.0
 11
104.3571986497022
 21
94.9921221858455
 31
0.0
  0
LWPOLYLINE
  5
268
330
248
100
AcDbEntity
  8
LAYER0
  6
Continuous
 62
     4
100
AcDbPolyline
 90
        6
 70
   128
 43
0.0
 10
-86.6527513426636
 20
68.58401918244321
 10
-86.67651993652515
 20
68.60300459055435
 10
-86.69500869251097
 20
68.62930727867418
 10
-86.70765583913044
 20
68.66212805293995
 10
-86.71407709923608
 20
68.70046967074109
 10
-86.71488445909787
 20
68.72135411918796
210
0.0
220
0.0
230
-1.0
  0
LINE
  5
269
330
248
100
AcDbEntity
  8
LAYER0
  6
Continuous
 62
     4
100
AcDbLine
 10
86.6527513426636
 20
68.58401918244321
 30
0.0
 11
100.7948869663946
 21
76.74890645749467
 31
0.0
  0
LWPOLYLINE
  5
26A
330
248
100
AcDbEntity
  8
LAYER0
  6
Continuous
 62
     4
100
AcDbPolyline
 90
        6
 70
   128
 43
0.0
 10
86.77701757553214
 20
101.028573453683
 10
86.80534381057774
 20
101.0396647197713
 10
86.83736700849569
 20
101.0425248413318
 10
86.87211416062902
 20
101.0370669150186
 10
86.90852949235094
 20
101.0234567771597
 10
86.92701649345383
 20
101.0137153600957
  0
LWPOLYLINE
  5
26B
330
248
100
AcDbEntity
  8
LAYER0
  6
Continuous
 62
     4
100
AcDbPolyline
 90
        6
 70
   128
 43
0.0
 10
-72.63488195180119
 20
92.86368617863154
 10
-72.61111335793964
 20
92.84470077052042
 10
-72.59262460195383
 20
92.81839808240056
 10
-72.57997745533436
 20
92.78557730813482
 10
-72.57355619522872
 20
92.74723569033367
 10
-72.57274883536692
 20
92.72635124188679
210
0.0
220
0.0
230
-1.0
  0
LINE
  5
26C
330
248
100
AcDbEntity
  8
LAYER0
  6
Continuous
 62
     4
100
AcDbLine
 10
86.77701757553214
 20
101.028573453683
 30
0.0
 11
72.63488195180119
 21
92.86368617863154
 31
0.0
  0
LINE
  5
26D
330
248
100
AcDbEntity
  8
LAYER0
  6
Continuous
 62
     4
100
AcDbLine
 10
73.38632168583496
 20
77.05290990358763
 30
0.0
 11
85.90131160862984
 21
84.27837320607202
 31
0.0
  0
LINE
  5
26E
330
248
100
AcDbEntity
  8
LAYER0
  6
Continuous
 62
   136
100
AcDbLine
 10
117.827582831306
 20
102.5242159719485
 30
0.0
 11
104.3571986497022
 21
94.74716084246202
 31
0.0
  0
LINE
  5
26F
330
248
100
AcDbEntity
  8
LAYER0
  6
Continuous
 62
   136
100
AcDbLine
 10
104.1450763072166
 20
95.11458989942113
 30
0.0
 11
117.61545079695
 21
102.8916394333575
 31
0.0
  0
LWPOLYLINE
  5
270
330
248
100
AcDbEntity
  8
LAYER0
  6
Continuous
 62
     4
100
AcDbPolyline
 90
       10
 70
   128
 43
0.0
 10
-117.61545079695
 20
102.8916394333575
 10
-117.6522871380049
 20
102.8666508233079
 10
-117.6880042254852
 20
102.8349787931531
 10
-117.7215168137696
 20
102.7975856814953
 10
-117.751806639829
 20
102.7556076591021
 10
-117.7779533626326
 20
102.7103202069326
 10
-117.799162527245
 20
102.6630993612939
 10
-117.8147897039364
 20
102.6153799036754
 10
-117.8243600688544
 20
102.5686117656388
 10
-117.827582831306
 20
102.5242159733819
210
0.0
220
0.0
230
-1.0
  0
LINE
  5
271
330
248
100
AcDbEntity
  8
LAYER0
  6
Continuous
 62
     4
100
AcDbLine
 10
117.827582831306
 20
102.5242159719485
 30
0.0
 11
117.827582831306
 21
86.68410612430118
 31
0.0
  0
LINE
  5
272
330
248
100
AcDbEntity
  8
LAYER0
  6
Continuous
 62
   136
100
AcDbLine
 10
104.3571986497022
 20
78.90705099481464
 30
0.0
 11
117.827582831306
 21
86.68410612430118
 31
0.0
  0
LINE
  5
273
330
248
100
AcDbEntity
  8
LAYER0
  6
Continuous
 62
   136
100
AcDbLine
 10
103.897579241931
 20
110.8115800901574
 30
0.0
 11
90.42720475219761
 21
103.0345305562211
 31
0.0
  0
LINE
  5
274
330
248
100
AcDbEntity
  8
LAYER0
  6
Continuous
 62
     4
100
AcDbLine
 10
103.897579241931
 20
110.8115800901574
 30
0.0
 11
117.61545079695
 21
102.8916394333575
 31
0.0
  0
LINE
  5
275
330
248
100
AcDbEntity
  8
LAYER0
  6
Continuous
 62
     4
100
AcDbLine
 10
104.3571986497022
 20
78.80558828453067
 30
0.0
 11
117.7654497148717
 21
86.54677118755642
 31
0.0
  0
LWPOLYLINE
  5
276
330
248
100
AcDbEntity
  8
LAYER0
  6
Continuous
 62
     4
100
AcDbPolyline
 90
        6
 70
   128
 43
0.0
 10
117.827582831306
 20
86.68410612430118
 10
117.82436006907
 20
86.6434316216426
 10
117.8147897043609
 20
86.60771428265153
 10
117.7991625278656
 20
86.5780393605912
 10
117.7779533634305
 20
86.55530851294553
 10
117.7654497148717
 20
86.54677118755642
  0
LWPOLYLINE
  5
277
330
248
100
AcDbEntity
  8
LAYER0
  6
Continuous
 62
     4
100
AcDbPolyline
 90
        6
 70
   128
 43
0.0
 10
103.7475803240093
 20
110.8264381837448
 10
103.7759065590549
 20
110.8375294498331
 10
103.8079297569728
 20
110.8403895713935
 10
103.8426769091062
 20
110.8349316450803
 10
103.8790922408281
 20
110.8213215072214
 10
103.897579241931
 20
110.8115800901574
  0
LINE
  5
278
330
248
100
AcDbEntity
  8
LAYER0
  6
Continuous
 62
     4
100
AcDbLine
 10
103.7475803240093
 20
110.8264381837448
 30
0.0
 11
90.33933768297199
 21
103.0852601443472
 31
0.0
  0
ENDBLK
  5
24A
330
248
100
AcDbEntity
  8
0
100
AcDbBlockEnd
  0
BLOCK
  5
27C
330
27B
100
AcDbEntity
  8
0
100
AcDbBlockBegin
  2
*D20
 70
     1
 10
0.0
 20
0.0
 30
0.0
  3
*D20
  1

  0
LINE
  5
27E
330
27B
100
AcDbEntity
  8
LAYER0
  6
Continuous
 62
    56
100
AcDbLine
 10
34.13170710511405
 20
137.4329981598558
 30
0.0
 11
54.13170710511405
 21
137.4329981598558
 31
0.0
  0
INSERT
  5
27F
330
27B
100
AcDbEntity
  8
LAYER0
  6
Continuous
 62
    56
100
AcDbBlockReference
  2
ArrowheadClosed
 10
-34.13170710511405
 20
137.4329981598558
 30
0.0
 41
2.835640909808854
 42
2.835640909808854
 43
2.835640909808854
210
0.0
220
0.0
230
-1.0
  0
INSERT
  5
280
330
27B
100
AcDbEntity
  8
LAYER0
  6
Continuous
 62
    56
100
AcDbBlockReference
  2
ArrowheadClosed
 10
54.13170710511406
 20
137.4329981598558
 30
0.0
 41
2.835640909808854
 42
2.835640909808854
 43
2.835640909808854
  0
LINE
  5
281
330
27B
100
AcDbEntity
  8
LAYER0
  6
Continuous
 62
    56
100
AcDbLine
 10
34.13170710511405
 20
149.2948772451559
 30
0.0
 11
34.13170710511405
 21
135.4329981598558
 31
0.0
  0
LINE
  5
282
330
27B
100
AcDbEntity
  8
LAYER0
  6
Continuous
 62
    56
100
AcDbLine
 10
54.13170710511405
 20
149.2948772451559
 30
0.0
 11
54.13170710511405
 21
135.4329981598558
 31
0.0
  0
TEXT
  5
283
330
27B
100
AcDbEntity
  8
LAYER0
  6
Continuous
 62
     7
100
AcDbText
 10
41.52276048050918
 20
138.4329981598558
 30
0.0
 40
4.0
  1
20
 41
0.9317667250538112
  7
VISI1-courier new
 72
     5
 11
49.3496009709612
 21
138.4329981598558
 31
0.0
100
AcDbText
  0
ENDBLK
  5
27D
330
27B
100
AcDbEntity
  8
0
100
AcDbBlockEnd
  0
BLOCK
  5
286
330
285
100
AcDbEntity
  8
0
100
AcDbBlockBegin
  2
*D21
 70
     1
 10
0.0
 20
0.0
 30
0.0
  3
*D21
  1

  0
LINE
  5
288
330
285
100
AcDbEntity
  8
LAYER0
  6
Continuous
 62
    56
100
AcDbLine
 10
54.13170710511405
 20
137.4329981598558
 30
0.0
 11
58.13170710511406
 21
137.4329981598558
 31
0.0
  0
INSERT
  5
289
330
285
100
AcDbEntity
  8
LAYER0
  6
Continuous
 62
    56
100
AcDbBlockReference
  2
ArrowheadClosed
 10
-54.13170710511406
 20
137.4329981598558
 30
0.0
 41
2.835640909808854
 42
2.835640909808854
 43
2.835640909808854
210
0.0
220
0.0
230
-1.0
  0
INSERT
  5
28A
330
285
100
AcDbEntity
  8
LAYER0
  6
Continuous
 62
    56
100
AcDbBlockReference
  2
ArrowheadClosed
 10
58.13170710511406
 20
137.4329981598558
 30
0.0
 41
2.835640909808854
 42
2.835640909808854
 43
2.835640909808854
  0
LINE
  5
28B
330
285
100
AcDbEntity
  8
LAYER0
  6
Continuous
 62
    56
100
AcDbLine
 10
54.13170710511405
 20
148.3448772451559
 30
0.0
 11
54.13170710511405
 21
135.4329981598558
 31
0.0
  0
LINE
  5
28C
330
285
100
AcDbEntity
  8
LAYER0
  6
Continuous
 62
    56
100
AcDbLine
 10
58.13170710511406
 20
148.3448772451559
 30
0.0
 11
58.13170710511406
 21
135.4329981598558
 31
0.0
  0
TEXT
  5
28D
330
285
100
AcDbEntity
  8
LAYER0
  6
Continuous
 62
     7
100
AcDbText
 10
54.82723379281163
 20
138.4329981598558
 30
0.0
 40
4.0
  1
4
 41
0.9317667250538112
  7
VISI1-courier new
 72
     5
 11
58.74065403803763
 21
138.4329981598558
 31
0.0
100
AcDbText
  0
ENDBLK
  5
287
330
285
100
AcDbEntity
  8
0
100
AcDbBlockEnd
  0
ENDSEC
  0
SECTION
  2
ENTITIES
  0
INSERT
  5
231
330
1F
100
AcDbEntity
  8
LAYER0
  6
Continuous
 62
     4
100
AcDbBlockReference
  2
Group 1
 10
0.0
 20
0.0
 30
0.0
  0
INSERT
  5
247
330
1F
100
AcDbEntity
  8
LAYER0
  6
Continuous
 62
     4
100
AcDbBlockReference
  2
Plotview 2
 10
0.0
 20
0.0
 30
0.0
  0
INSERT
  5
279
330
1F
100
AcDbEntity
  8
LAYER0
  6
Continuous
 62
     4
100
AcDbBlockReference
  2
Plotview 3
 10
0.0
 20
0.0
 30
0.0
  0
DIMENSION
  5
27A
330
1F
100
AcDbEntity
  8
LAYER0
  6
Continuous
 62
    56
100
AcDbDimension
280
     0
  2
*D20
 10
42.46765713659921
 20
137.4329981598558
 30
0.0
 11
47.74065372971892
 21
138.4329981598558
 31
0.0
 70
   160
 71
     5
 42
-1.0
 73
     0
 74
     0
 75
     0
  3
VisiStyle
100
AcDbAlignedDimension
 13
54.13170710511405
 23
149.2948772451559
 33
0.0
 14
34.13170710511405
 24
149.2948772451559
 34
0.0
100
AcDbRotatedDimension
1001
ACAD
1000
DSTYLE
1002
{
1070
   289
1070
     1
1070
   280
1070
     0
1070
    41
1040
2.835640909808854
1002
}
  0
DIMENSION
  5
284
330
1F
100
AcDbEntity
  8
LAYER0
  6
Continuous
 62
    56
100
AcDbDimension
280
     0
  2
*D21
 10
54.13170710511405
 20
137.4329981598558
 30
0.0
 11
58.43618041741649
 21
138.4329981598558
 31
0.0
 70
   160
 71
     5
 42
-1.0
 73
     0
 74
     0
 75
     0
  3
VisiStyle
100
AcDbAlignedDimension
 13
58.13170710511406
 23
148.3448772451559
 33
0.0
 14
54.13170710511405
 24
148.3448772451559
 34
0.0
100
AcDbRotatedDimension
1001
ACAD
1000
DSTYLE
1002
{
1070
   289
1070
     1
1070
   280
1070
     0
1070
    41
1040
2.835640909808854
1002
}
  0
ENDSEC
  0
SECTION
  2
OBJECTS
  0
DICTIONARY
  5
C
330
0
100
AcDbDictionary
281
     1
  3
ACAD_DETAILVIEWSTYLE
350
295
  3
ACAD_GROUP
350
D
  3
ACAD_LAYOUT
350
1A
  3
ACAD_MATERIAL
350
43
  3
ACAD_MLEADERSTYLE
350
6B
  3
ACAD_MLINESTYLE
350
17
  3
ACAD_PLOTSETTINGS
350
19
  3
ACAD_PLOTSTYLENAME
350
E
  3
ACAD_SCALELIST
350
47
  3
ACAD_SECTIONVIEWSTYLE
350
296
  3
ACAD_TABLESTYLE
350
69
  3
ACAD_VISUALSTYLE
350
2A
  3
ACDB_RECOMPOSE_DATA
350
292
  3
AcDbVariableDictionary
350
28E
  0
SUN
  5
6D
330
29
100
AcDbSun
 90
        1
290
     0
 63
     7
421
 16777215
 40
1.0
291
     1
 91
  2455826
 92
 54000000
292
     0
 70
     2
 71
   256
280
     1
  0
DICTIONARY
  5
295
102
{ACAD_REACTORS
330
C
102
}
330
C
100
AcDbDictionary
281
     1
  0
DICTIONARY
  5
D
102
{ACAD_REACTORS
330
C
102
}
330
C
100
AcDbDictionary
281
     1
  0
DICTIONARY
  5
1A
102
{ACAD_REACTORS
330
C
102
}
330
C
100
AcDbDictionary
281
     1
  3
Layout1
350
1E
  3
Layout2
350
26
  3
Model
350
22
  0
DICTIONARY
  5
43
102
{ACAD_REACTORS
330
C
102
}
330
C
100
AcDbDictionary
281
     1
  3
ByBlock
350
45
  3
ByLayer
350
44
  3
Global
350
46
  0
DICTIONARY
  5
6B
102
{ACAD_REACTORS
330
C
102
}
330
C
100
AcDbDictionary
281
     1
  3
Standard
350
6C
  3
VisiBalloon
350
E8
  0
DICTIONARY
  5
17
102
{ACAD_REACTORS
330
C
102
}
330
C
100
AcDbDictionary
281
     1
  3
Standard
350
18
  0
DICTIONARY
  5
19
102
{ACAD_REACTORS
330
C
102
}
330
C
100
AcDbDictionary
281
     1
  0
ACDBDICTIONARYWDFLT
  5
E
102
{ACAD_REACTORS
330
C
102
}
330
C
100
AcDbDictionary
281
     1
  3
Normal
350
F
100
AcDbDictionaryWithDefault
340
F
  0
DICTIONARY
  5
47
102
{ACAD_REACTORS
330
C
102
}
330
C
100
AcDbDictionary
281
     1
  3
A0
350
48
  3
A1
350
49
  3
A2
350
4A
  3
A3
350
4B
  3
A4
350
4C
  3
A5
350
4D
  3
A6
350
4E
  3
A7
350
4F
  3
A8
350
50
  3
A9
350
51
  3
B0
350
52
  3
B1
350
53
  3
B2
350
54
  3
B3
350
55
  3
B4
350
56
  3
B5
350
57
  3
B6
350
58
  3
B7
350
59
  3
B8
350
5A
  3
B9
350
5B
  3
C0
350
5C
  3
C1
350
5D
  3
C2
350
5E
  3
C3
350
5F
  3
C4
350
60
  3
C5
350
61
  3
C6
350
62
  3
C7
350
63
  3
C8
350
64
  3
C9
350
65
  3
D0
350
66
  3
D1
350
67
  3
D2
350
68
  0
DICTIONARY
  5
296
102
{ACAD_REACTORS
330
C
102
}
330
C
100
AcDbDictionary
281
     1
  0
DICTIONARY
  5
69
102
{ACAD_REACTORS
330
C
102
}
330
C
100
AcDbDictionary
281
     1
  3
Standard
350
6A
  0
DICTIONARY
  5
2A
102
{ACAD_REACTORS
330
C
102
}
330
C
100
AcDbDictionary
281
     1
  3
2dWireframe
350
2F
  3
Basic
350
32
  3
Brighten
350
36
  3
ColorChange
350
3A
  3
Conceptual
350
34
  3
Dim
350
35
  3
EdgeColorOff
350
3D
  3
Facepattern
350
39
  3
Flat
350
2B
  3
FlatWithEdges
350
2C
  3
Gouraud
350
2D
  3
GouraudWithEdges
350
2E
  3
Hidden
350
31
  3
JitterOff
350
3B
  3
Linepattern
350
38
  3
OverhangOff
350
3C
  3
Realistic
350
33
  3
Shaded
350
42
  3
Shaded with edges
350
41
  3
Shades of Gray
350
3E
  3
Sketchy
350
3F
  3
Thicken
350
37
  3
Wireframe
350
30
  3
X-Ray
350
40
  0
XRECORD
  5
292
102
{ACAD_REACTORS
330
C
102
}
330
C
100
AcDbXrecord
280
     1
 90
        1
330
6A
  0
DICTIONARY
  5
28E
102
{ACAD_REACTORS
330
C
102
}
330
C
100
AcDbDictionary
281
     1
  3
CANNOSCALE
350
28F
  3
CMLEADERSTYLE
350
294
  3
CTABLESTYLE
350
293
  0
LAYOUT
  5
1E
102
{ACAD_REACTORS
330
1A
102
}
330
1A
100
AcDbPlotSettings
  1

  2
none_device
  4

  6

 40
0.0
 41
0.0
 42
0.0
 43
0.0
 44
0.0
 45
0.0
 46
0.0
 47
0.0
 48
0.0
 49
0.0
140
0.0
141
0.0
142
1.0
143
1.0
 70
   688
 72
     1
 73
     0
 74
     5
  7

 75
    16
 76
     0
 77
     2
 78
   300
147
1.0
148
0.0
149
0.0
100
AcDbLayout
  1
Layout1
 70
     1
 71
     1
 10
0.0
 20
0.0
 11
420.0
 21
297.0
 12
0.0
 22
0.0
 32
0.0
 14
1.000000000000000E+20
 24
1.000000000000000E+20
 34
1.000000000000000E+20
 15
-1.000000000000000E+20
 25
-1.000000000000000E+20
 35
-1.000000000000000E+20
146
0.0
 13
0.0
 23
0.0
 33
0.0
 16
1.0
 26
0.0
 36
0.0
 17
0.0
 27
1.0
 37
0.0
 76
     0
330
1B
  0
LAYOUT
  5
26
102
{ACAD_REACTORS
330
1A
102
}
330
1A
100
AcDbPlotSettings
  1

  2
none_device
  4

  6

 40
0.0
 41
0.0
 42
0.0
 43
0.0
 44
0.0
 45
0.0
 46
0.0
 47
0.0
 48
0.0
 49
0.0
140
0.0
141
0.0
142
1.0
143
1.0
 70
   688
 72
     1
 73
     0
 74
     5
  7

 75
    16
 76
     0
 77
     2
 78
   300
147
1.0
148
0.0
149
0.0
100
AcDbLayout
  1
Layout2
 70
     1
 71
     2
 10
0.0
 20
0.0
 11
0.0
 21
0.0
 12
0.0
 22
0.0
 32
0.0
 14
0.0
 24
0.0
 34
0.0
 15
0.0
 25
0.0
 35
0.0
146
0.0
 13
0.0
 23
0.0
 33
0.0
 16
1.0
 26
0.0
 36
0.0
 17
0.0
 27
1.0
 37
0.0
 76
     0
330
23
  0
LAYOUT
  5
22
102
{ACAD_REACTORS
330
1A
102
}
330
1A
100
AcDbPlotSettings
  1

  2
none_device
  4
Letter_(8.50_x_11.00_Inches)
  6

 40
6.35
 41
6.35
 42
6.35000508
 43
6.35000508
 44
215.9
 45
279.4
 46
0.0
 47
0.0
 48
0.0
 49
0.0
140
0.0
141
0.0
142
1.0
143
1.0
 70
  1712
 72
     1
 73
     0
 74
     0
  7

 75
     0
 76
     0
 77
     2
 78
   300
147
1.0
148
0.0
149
0.0
100
AcDbLayout
  1
Model
 70
     1
 71
     0
 10
0.0
 20
0.0
 11
420.0
 21
297.0
 12
0.0
 22
0.0
 32
0.0
 14
0.0
 24
0.0
 34
0.0
 15
151.4009234743087
 25
198.0000000000001
 35
0.0
146
0.0
 13
0.0
 23
0.0
 33
0.0
 16
1.0
 26
0.0
 36
0.0
 17
0.0
 27
1.0
 37
0.0
 76
     0
330
1F
331
29
  0
MATERIAL
  5
45
102
{ACAD_REACTORS
330
43
102
}
330
43
100
AcDbMaterial
  1
ByBlock
 72
     1
 94
      127
  0
MATERIAL
  5
44
102
{ACAD_REACTORS
330
43
102
}
330
43
100
AcDbMaterial
  1
ByLayer
 72
     1
 94
      127
  0
MATERIAL
  5
46
102
{ACAD_REACTORS
330
43
102
}
330
43
100
AcDbMaterial
  1
Global
 72
     1
 94
      127
  0
MLEADERSTYLE
  5
6C
102
{ACAD_REACTORS
330
6B
102
}
330
6B
100
AcDbMLeaderStyle
179
     2
170
     2
171
     1
172
     0
 90
        2
 40
0.0
 41
0.0
173
     1
 91
-1056964608
340
14
 92
       -2
290
     1
 42
2.0
291
     1
 43
8.0
  3
Standard
341
0
 44
4.0
300

342
11
174
     1
178
     6
175
     1
176
     0
 93
-1056964608
 45
4.0
292
     0
297
     0
 46
4.0
343
0
 94
-1056964608
 47
1.0
 49
1.0
140
1.0
293
     1
141
0.0
294
     1
177
     0
142
1.0
295
     0
296
     0
143
3.75
271
     0
272
     9
273
     9
298
     0
  0
MLEADERSTYLE
  5
E8
102
{ACAD_REACTORS
330
6B
102
}
330
6B
100
AcDbMLeaderStyle
179
     2
170
     2
171
     1
172
     0
 90
        2
 40
0.0
 41
0.0
173
     1
 91
-1056964608
340
14
 92
       -2
290
     0
 42
0.0
291
     0
 43
0.0
  3

341
0
 44
4.0
300

342
C9
174
     1
178
     6
175
     1
176
     0
 93
-1023410169
 45
4.0
292
     0
297
     0
 46
4.0
343
0
 94
-1056964608
 47
1.0
 49
1.0
140
1.0
293
     1
141
0.0
294
     1
177
     0
142
1.0
295
     0
296
     0
143
3.75
271
     0
272
     9
273
     9
298
     0
  0
MLINESTYLE
  5
18
102
{ACAD_REACTORS
330
17
102
}
330
17
100
AcDbMlineStyle
  2
Standard
 70
     0
  3

 62
   256
 51
90.0
 52
90.0
 71
     2
 49
0.5
 62
   256
  6
BYLAYER
 49
-0.5
 62
   256
  6
BYLAYER
  0
ACDBPLACEHOLDER
  5
F
102
{ACAD_REACTORS
330
E
102
}
330
E
  0
SCALE
  5
48
102
{ACAD_REACTORS
330
47
102
}
330
47
100
AcDbScale
 70
     0
300
1:1
140
1.0
141
1.0
290
     1
  0
SCALE
  5
49
102
{ACAD_REACTORS
330
47
102
}
330
47
100
AcDbScale
 70
     0
300
1:2
140
1.0
141
2.0
290
     0
  0
SCALE
  5
4A
102
{ACAD_REACTORS
330
47
102
}
330
47
100
AcDbScale
 70
     0
300
1:4
140
1.0
141
4.0
290
     0
  0
SCALE
  5
4B
102
{ACAD_REACTORS
330
47
102
}
330
47
100
AcDbScale
 70
     0
300
1:5
140
1.0
141
5.0
290
     0
  0
SCALE
  5
4C
102
{ACAD_REACTORS
330
47
102
}
330
47
100
AcDbScale
 70
     0
300
1:8
140
1.0
141
8.0
290
     0
  0
SCALE
  5
4D
102
{ACAD_REACTORS
330
47
102
}
330
47
100
AcDbScale
 70
     0
300
1:10
140
1.0
141
10.0
290
     0
  0
SCALE
  5
4E
102
{ACAD_REACTORS
330
47
102
}
330
47
100
AcDbScale
 70
     0
300
1:16
140
1.0
141
16.0
290
     0
  0
SCALE
  5
4F
102
{ACAD_REACTORS
330
47
102
}
330
47
100
AcDbScale
 70
     0
300
1:20
140
1.0
141
20.0
290
     0
  0
SCALE
  5
50
102
{ACAD_REACTORS
330
47
102
}
330
47
100
AcDbScale
 70
     0
300
1:30
140
1.0
141
30.0
290
     0
  0
SCALE
  5
51
102
{ACAD_REACTORS
330
47
102
}
330
47
100
AcDbScale
 70
     0
300
1:40
140
1.0
141
40.0
290
     0
  0
SCALE
  5
52
102
{ACAD_REACTORS
330
47
102
}
330
47
100
AcDbScale
 70
     0
300
1:50
140
1.0
141
50.0
290
     0
  0
SCALE
  5
53
102
{ACAD_REACTORS
330
47
102
}
330
47
100
AcDbScale
 70
     0
300
1:100
140
1.0
141
100.0
290
     0
  0
SCALE
  5
54
102
{ACAD_REACTORS
330
47
102
}
330
47
100
AcDbScale
 70
     0
300
2:1
140
2.0
141
1.0
290
     0
  0
SCALE
  5
55
102
{ACAD_REACTORS
330
47
102
}
330
47
100
AcDbScale
 70
     0
300
4:1
140
4.0
141
1.0
290
     0
  0
SCALE
  5
56
102
{ACAD_REACTORS
330
47
102
}
330
47
100
AcDbScale
 70
     0
300
8:1
140
8.0
141
1.0
290
     0
  0
SCALE
  5
57
102
{ACAD_REACTORS
330
47
102
}
330
47
100
AcDbScale
 70
     0
300
10:1
140
10.0
141
1.0
290
     0
  0
SCALE
  5
58
102
{ACAD_REACTORS
330
47
102
}
330
47
100
AcDbScale
 70
     0
300
100:1
140
100.0
141
1.0
290
     0
  0
SCALE
  5
59
102
{ACAD_REACTORS
330
47
102
}
330
47
100
AcDbScale
 70
     0
300
1/128" = 1'-0"
140
0.0078125
141
12.0
290
     0
  0
SCALE
  5
5A
102
{ACAD_REACTORS
330
47
102
}
330
47
100
AcDbScale
 70
     0
300
1/64" = 1'-0"
140
0.015625
141
12.0
290
     0
  0
SCALE
  5
5B
102
{ACAD_REACTORS
330
47
102
}
330
47
100
AcDbScale
 70
     0
300
1/32" = 1'-0"
140
0.03125
141
12.0
290
     0
  0
SCALE
  5
5C
102
{ACAD_REACTORS
330
47
102
}
330
47
100
AcDbScale
 70
     0
300
1/16" = 1'-0"
140
0.0625
141
12.0
290
     0
  0
SCALE
  5
5D
102
{ACAD_REACTORS
330
47
102
}
330
47
100
AcDbScale
 70
     0
300
3/32" = 1'-0"
140
0.09375
141
12.0
290
     0
  0
SCALE
  5
5E
102
{ACAD_REACTORS
330
47
102
}
330
47
100
AcDbScale
 70
     0
300
1/8" = 1'-0"
140
0.125
141
12.0
290
     0
  0
SCALE
  5
5F
102
{ACAD_REACTORS
330
47
102
}
330
47
100
AcDbScale
 70
     0
300
3/16" = 1'-0"
140
0.1875
141
12.0
290
     0
  0
SCALE
  5
60
102
{ACAD_REACTORS
330
47
102
}
330
47
100
AcDbScale
 70
     0
300
1/4" = 1'-0"
140
0.25
141
12.0
290
     0
  0
SCALE
  5
61
102
{ACAD_REACTORS
330
47
102
}
330
47
100
AcDbScale
 70
     0
300
3/8" = 1'-0"
140
0.375
141
12.0
290
     0
  0
SCALE
  5
62
102
{ACAD_REACTORS
330
47
102
}
330
47
100
AcDbScale
 70
     0
300
1/2" = 1'-0"
140
0.5
141
12.0
290
     0
  0
SCALE
  5
63
102
{ACAD_REACTORS
330
47
102
}
330
47
100
AcDbScale
 70
     0
300
3/4" = 1'-0"
140
0.75
141
12.0
290
     0
  0
SCALE
  5
64
102
{ACAD_REACTORS
330
47
102
}
330
47
100
AcDbScale
 70
     0
300
1" = 1'-0"
140
1.0
141
12.0
290
     0
  0
SCALE
  5
65
102
{ACAD_REACTORS
330
47
102
}
330
47
100
AcDbScale
 70
     0
300
1-1/2" = 1'-0"
140
1.5
141
12.0
290
     0
  0
SCALE
  5
66
102
{ACAD_REACTORS
330
47
102
}
330
47
100
AcDbScale
 70
     0
300
3" = 1'-0"
140
3.0
141
12.0
290
     0
  0
SCALE
  5
67
102
{ACAD_REACTORS
330
47
102
}
330
47
100
AcDbScale
 70
     0
300
6" = 1'-0"
140
6.0
141
12.0
290
     0
  0
SCALE
  5
68
102
{ACAD_REACTORS
330
47
102
}
330
47
100
AcDbScale
 70
     0
300
1'-0" = 1'-0"
140
12.0
141
12.0
290
     0
  0
TABLESTYLE
  5
6A
102
{ACAD_REACTORS
330
69
102
}
102
{ACAD_XDICTIONARY
360
290
102
}
330
69
100
AcDbTableStyle
  3
Standard
 70
     0
 71
     0
 40
0.06
 41
0.06
280
     0
281
     0
  7
Standard
140
4.5
170
     2
 62
     0
 63
   257
283
     0
 90
        4
 91
        0
  1

274
    -2
284
     1
 64
     0
275
    -2
285
     1
 65
     0
276
    -2
286
     1
 66
     0
277
    -2
287
     1
 67
     0
278
    -2
288
     1
 68
     0
279
    -2
289
     1
 69
     0
  7
Standard
140
6.0
170
     5
 62
     0
 63
   257
283
     0
 90
        4
 91
        0
  1

274
    -2
284
     1
 64
     0
275
    -2
285
     1
 65
     0
276
    -2
286
     1
 66
     0
277
    -2
287
     1
 67
     0
278
    -2
288
     1
 68
     0
279
    -2
289
     1
 69
     0
  7
Standard
140
4.5
170
     5
 62
     0
 63
   257
283
     0
 90
        4
 91
        0
  1

274
    -2
284
     1
 64
     0
275
    -2
285
     1
 65
     0
276
    -2
286
     1
 66
     0
277
    -2
287
     1
 67
     0
278
    -2
288
     1
 68
     0
279
    -2
289
     1
 69
     0
  0
VISUALSTYLE
  5
2F
102
{ACAD_REACTORS
330
2A
102
}
330
2A
100
AcDbVisualStyle
  2
2dWireframe
 70
     4
177
     3
291
     0
 70
    58
 90
        0
176
     1
 90
        2
176
     1
 90
        0
176
     1
 90
        0
176
     1
 40
0.6
176
     1
 40
30.0
176
     1
 62
     7
420
 16777215
176
     1
 90
        1
176
     1
 90
        4
176
     1
 62
     7
176
     1
 62
   257
176
     1
 90
        1
176
     1
 90
        1
176
     1
 40
1.0
176
     1
 90
        0
176
     1
 62
   257
176
     1
 40
1.0
176
     1
 90
        1
176
     1
 90
        6
176
     1
 90
        2
176
     1
 62
     7
176
     1
 90
        5
176
     1
 90
        0
176
     1
 90
        0
176
     1
290
     0
176
     1
 90
        1
176
     1
 40
0.0
176
     1
 90
        0
176
     1
290
     1
176
     1
290
     1
176
     1
290
     0
176
     1
290
     0
176
     1
290
     0
176
     1
290
     0
176
     1
290
     0
176
     1
290
     0
176
     1
290
     0
176
     1
 90
       50
176
     1
 40
0.0
176
     1
 40
1.0
176
     1
 90
        0
176
     1
 62
    18
420
        0
176
     1
 90
       50
176
     1
 90
        3
176
     1
 62
     5
420
      255
176
     1
290
     0
176
     1
 90
       50
176
     1
 90
       50
176
     1
 90
       50
176
     1
290
     0
176
     1
 90
       50
176
     1
 62
   256
176
     0
 40
1.0
176
     0
 90
        2
176
     1
  1
strokes_ogs.tif
176
     1
290
     0
176
     1
 40
1.0
176
     1
 40
1.0
176
     1
  0
VISUALSTYLE
  5
32
102
{ACAD_REACTORS
330
2A
102
}
330
2A
100
AcDbVisualStyle
  2
Basic
 70
     7
177
     3
291
     1
 70
    58
 90
        1
176
     1
 90
        0
176
     1
 90
        1
176
     1
 90
        0
176
     1
 40
0.6
176
     1
 40
30.0
176
     1
 62
     7
420
 16777215
176
     1
 90
        0
176
     1
 90
        4
176
     1
 62
     7
176
     1
 62
   257
176
     1
 90
        1
176
     1
 90
        1
176
     1
 40
1.0
176
     1
 90
        8
176
     1
 62
     7
176
     1
 40
1.0
176
     1
 90
        1
176
     1
 90
        6
176
     1
 90
        2
176
     1
 62
     7
176
     1
 90
        5
176
     1
 90
        0
176
     1
 90
        0
176
     1
290
     0
176
     1
 90
        1
176
     1
 40
0.0
176
     1
 90
        0
176
     1
290
     0
176
     1
290
     1
176
     1
290
     1
176
     1
290
     0
176
     1
290
     0
176
     1
290
     0
176
     1
290
     0
176
     1
290
     0
176
     1
290
     0
176
     1
 90
       50
176
     1
 40
0.0
176
     1
 40
1.0
176
     1
 90
        0
176
     1
 62
    18
420
        0
176
     1
 90
       50
176
     1
 90
        3
176
     1
 62
     5
420
      255
176
     1
290
     0
176
     1
 90
       50
176
     1
 90
       50
176
     1
 90
       50
176
     1
290
     0
176
     1
 90
       50
176
     1
 62
   256
176
     0
 40
1.0
176
     0
 90
        2
176
     1
  1
strokes_ogs.tif
176
     1
290
     0
176
     1
 40
1.0
176
     1
 40
1.0
176
     1
  0
VISUALSTYLE
  5
36
102
{ACAD_REACTORS
330
2A
102
}
330
2A
100
AcDbVisualStyle
  2
Brighten
 70
    12
177
     3
291
     1
 70
    58
 90
        2
176
     1
 90
        2
176
     1
 90
        0
176
     1
 90
        0
176
     1
 40
0.6
176
     1
 40
30.0
176
     1
 62
     7
420
 16777215
176
     1
 90
        1
176
     1
 90
        4
176
     1
 62
     7
176
     1
 62
   257
176
     1
 90
        1
176
     1
 90
        1
176
     1
 40
1.0
176
     1
 90
        8
176
     1
 62
     7
176
     1
 40
1.0
176
     1
 90
        1
176
     1
 90
        6
176
     1
 90
        2
176
     1
 62
     7
176
     1
 90
        5
176
     1
 90
        0
176
     1
 90
        0
176
     1
290
     0
176
     1
 90
        1
176
     1
 40
50.0
176
     1
 90
        0
176
     1
290
     0
176
     1
290
     1
176
     1
290
     1
176
     1
290
     0
176
     1
290
     0
176
     1
290
     0
176
     1
290
     0
176
     1
290
     0
176
     1
290
     0
176
     1
 90
       50
176
     1
 40
0.0
176
     1
 40
1.0
176
     1
 90
        0
176
     1
 62
    18
420
        0
176
     1
 90
       50
176
     1
 90
        3
176
     1
 62
     5
420
      255
176
     1
290
     0
176
     1
 90
       50
176
     1
 90
       50
176
     1
 90
       50
176
     1
290
     0
176
     1
 90
       50
176
     1
 62
   256
176
     0
 40
1.0
176
     0
 90
        2
176
     1
  1
strokes_ogs.tif
176
     1
290
     0
176
     1
 40
1.0
176
     1
 40
1.0
176
     1
  0
VISUALSTYLE
  5
3A
102
{ACAD_REACTORS
330
2A
102
}
330
2A
100
AcDbVisualStyle
  2
ColorChange
 70
    16
177
     3
291
     1
 70
    58
 90
        2
176
     1
 90
        2
176
     1
 90
        3
176
     1
 90
        0
176
     1
 40
0.6
176
     1
 40
30.0
176
     1
 62
     8
420
  8421504
176
     1
 90
        1
176
     1
 90
        4
176
     1
 62
     7
176
     1
 62
   257
176
     1
 90
        1
176
     1
 90
        1
176
     1
 40
1.0
176
     1
 90
        8
176
     1
 62
     8
420
  8421504
176
     1
 40
1.0
176
     1
 90
        1
176
     1
 90
        6
176
     1
 90
        2
176
     1
 62
     7
176
     1
 90
        5
176
     1
 90
        0
176
     1
 90
        0
176
     1
290
     0
176
     1
 90
        1
176
     1
 40
0.0
176
     1
 90
        0
176
     1
290
     0
176
     1
290
     1
176
     1
290
     1
176
     1
290
     0
176
     1
290
     0
176
     1
290
     0
176
     1
290
     0
176
     1
290
     0
176
     1
290
     0
176
     1
 90
       50
176
     1
 40
0.0
176
     1
 40
1.0
176
     1
 90
        0
176
     1
 62
    18
420
        0
176
     1
 90
       50
176
     1
 90
        3
176
     1
 62
     5
420
      255
176
     1
290
     0
176
     1
 90
       50
176
     1
 90
       50
176
     1
 90
       50
176
     1
290
     0
176
     1
 90
       50
176
     1
 62
   256
176
     0
 40
1.0
176
     0
 90
        2
176
     1
  1
strokes_ogs.tif
176
     1
290
     0
176
     1
 40
1.0
176
     1
 40
1.0
176
     1
  0
VISUALSTYLE
  5
34
102
{ACAD_REACTORS
330
2A
102
}
330
2A
100
AcDbVisualStyle
  2
Conceptual
 70
     9
177
     3
291
     0
 70
    58
 90
        3
176
     1
 90
        2
176
     1
 90
        0
176
     1
 90
        0
176
     1
 40
0.6
176
     1
 40
30.0
176
     1
 62
     7
420
 16777215
176
     1
 90
        2
176
     1
 90
        2
176
     1
 62
     7
176
     1
 62
   257
176
     1
 90
        1
176
     1
 90
        1
176
     1
 40
179.0
176
     1
 90
        8
176
     1
 62
     7
176
     1
 40
1.0
176
     1
 90
        1
176
     1
 90
        6
176
     1
 90
        2
176
     1
 62
     7
176
     1
 90
        3
176
     1
 90
        0
176
     1
 90
        0
176
     1
290
     0
176
     1
 90
        1
176
     1
 40
0.0
176
     1
 90
        0
176
     1
290
     0
176
     1
290
     1
176
     1
290
     1
176
     1
290
     0
176
     1
290
     0
176
     1
290
     0
176
     1
290
     0
176
     1
290
     0
176
     1
290
     0
176
     1
 90
       50
176
     1
 40
0.0
176
     1
 40
1.0
176
     1
 90
        0
176
     1
 62
    18
420
        0
176
     1
 90
       50
176
     1
 90
        3
176
     1
 62
     5
420
      255
176
     1
290
     0
176
     1
 90
       50
176
     1
 90
       50
176
     1
 90
       50
176
     1
290
     0
176
     1
 90
       50
176
     1
 62
   256
176
     0
 40
1.0
176
     0
 90
        2
176
     1
  1
strokes_ogs.tif
176
     1
290
     0
176
     1
 40
1.0
176
     1
 40
1.0
176
     1
  0
VISUALSTYLE
  5
35
102
{ACAD_REACTORS
330
2A
102
}
330
2A
100
AcDbVisualStyle
  2
Dim
 70
    11
177
     3
291
     1
 70
    58
 90
        2
176
     1
 90
        2
176
     1
 90
        0
176
     1
 90
        0
176
     1
 40
0.6
176
     1
 40
30.0
176
     1
 62
     7
420
 16777215
176
     1
 90
        1
176
     1
 90
        4
176
     1
 62
     7
176
     1
 62
   257
176
     1
 90
        1
176
     1
 90
        1
176
     1
 40
1.0
176
     1
 90
        8
176
     1
 62
     7
176
     1
 40
1.0
176
     1
 90
        1
176
     1
 90
        6
176
     1
 90
        2
176
     1
 62
     7
176
     1
 90
        5
176
     1
 90
        0
176
     1
 90
        0
176
     1
290
     0
176
     1
 90
        1
176
     1
 40
-50.0
176
     1
 90
        0
176
     1
290
     0
176
     1
290
     1
176
     1
290
     1
176
     1
290
     0
176
     1
290
     0
176
     1
290
     0
176
     1
290
     0
176
     1
290
     0
176
     1
290
     0
176
     1
 90
       50
176
     1
 40
0.0
176
     1
 40
1.0
176
     1
 90
        0
176
     1
 62
    18
420
        0
176
     1
 90
       50
176
     1
 90
        3
176
     1
 62
     5
420
      255
176
     1
290
     0
176
     1
 90
       50
176
     1
 90
       50
176
     1
 90
       50
176
     1
290
     0
176
     1
 90
       50
176
     1
 62
   256
176
     0
 40
1.0
176
     0
 90
        2
176
     1
  1
strokes_ogs.tif
176
     1
290
     0
176
     1
 40
1.0
176
     1
 40
1.0
176
     1
  0
VISUALSTYLE
  5
3D
102
{ACAD_REACTORS
330
2A
102
}
330
2A
100
AcDbVisualStyle
  2
EdgeColorOff
 70
    22
177
     3
291
     1
 70
    58
 90
        2
176
     0
 90
        2
176
     0
 90
        0
176
     0
 90
        0
176
     0
 40
0.6
176
     0
 40
30.0
176
     0
 62
     7
420
 16777215
176
     0
 90
        1
176
     0
 90
        4
176
     0
 62
     7
176
     0
 62
   257
176
     0
 90
        1
176
     0
 90
        1
176
     0
 40
1.0
176
     0
 90
        8
176
     2
 62
     7
176
     0
 40
1.0
176
     0
 90
        1
176
     0
 90
        6
176
     0
 90
        2
176
     0
 62
     7
176
     0
 90
        5
176
     0
 90
        0
176
     0
 90
        0
176
     0
290
     0
176
     0
 90
        1
176
     0
 40
0.0
176
     0
 90
        0
176
     0
290
     0
176
     0
290
     1
176
     0
290
     1
176
     0
290
     0
176
     0
290
     0
176
     0
290
     0
176
     0
290
     0
176
     0
290
     0
176
     0
290
     0
176
     0
 90
       50
176
     0
 40
0.0
176
     0
 40
1.0
176
     0
 90
        0
176
     0
 62
    18
420
        0
176
     0
 90
       50
176
     0
 90
        3
176
     0
 62
     5
420
      255
176
     0
290
     0
176
     0
 90
       50
176
     0
 90
       50
176
     0
 90
       50
176
     0
290
     0
176
     0
 90
       50
176
     0
 62
   256
176
     0
 40
1.0
176
     0
 90
        2
176
     0
  1
strokes_ogs.tif
176
     0
290
     0
176
     0
 40
1.0
176
     0
 40
1.0
176
     0
  0
VISUALSTYLE
  5
39
102
{ACAD_REACTORS
330
2A
102
}
330
2A
100
AcDbVisualStyle
  2
Facepattern
 70
    15
177
     3
291
     1
 70
    58
 90
        2
176
     1
 90
        2
176
     1
 90
        0
176
     1
 90
        0
176
     1
 40
0.6
176
     1
 40
30.0
176
     1
 62
     7
420
 16777215
176
     1
 90
        1
176
     1
 90
        4
176
     1
 62
     7
176
     1
 62
   257
176
     1
 90
        1
176
     1
 90
        1
176
     1
 40
1.0
176
     1
 90
        8
176
     1
 62
     7
176
     1
 40
1.0
176
     1
 90
        1
176
     1
 90
        6
176
     1
 90
        2
176
     1
 62
     7
176
     1
 90
        5
176
     1
 90
        0
176
     1
 90
        0
176
     1
290
     0
176
     1
 90
        1
176
     1
 40
0.0
176
     1
 90
        0
176
     1
290
     0
176
     1
290
     1
176
     1
290
     1
176
     1
290
     0
176
     1
290
     0
176
     1
290
     0
176
     1
290
     0
176
     1
290
     0
176
     1
290
     0
176
     1
 90
       50
176
     1
 40
0.0
176
     1
 40
1.0
176
     1
 90
        0
176
     1
 62
    18
420
        0
176
     1
 90
       50
176
     1
 90
        3
176
     1
 62
     5
420
      255
176
     1
290
     0
176
     1
 90
       50
176
     1
 90
       50
176
     1
 90
       50
176
     1
290
     0
176
     1
 90
       50
176
     1
 62
   256
176
     0
 40
1.0
176
     0
 90
        2
176
     1
  1
strokes_ogs.tif
176
     1
290
     0
176
     1
 40
1.0
176
     1
 40
1.0
176
     1
  0
VISUALSTYLE
  5
2B
102
{ACAD_REACTORS
330
2A
102
}
330
2A
100
AcDbVisualStyle
  2
Flat
 70
     0
177
     3
291
     1
 70
    58
 90
        2
176
     1
 90
        1
176
     1
 90
        1
176
     1
 90
        2
176
     1
 40
0.6
176
     1
 40
30.0
176
     1
 62
     7
420
 16777215
176
     1
 90
        0
176
     1
 90
        0
176
     1
 62
     7
176
     1
 62
   257
176
     1
 90
        1
176
     1
 90
        1
176
     1
 40
1.0
176
     1
 90
        8
176
     1
 62
     7
176
     1
 40
1.0
176
     1
 90
        1
176
     1
 90
        6
176
     1
 90
        2
176
     1
 62
     7
176
     1
 90
        5
176
     1
 90
        0
176
     1
 90
        0
176
     1
290
     0
176
     1
 90
       13
176
     1
 40
0.0
176
     1
 90
        0
176
     1
290
     0
176
     1
290
     1
176
     1
290
     1
176
     1
290
     0
176
     1
290
     0
176
     1
290
     0
176
     1
290
     0
176
     1
290
     0
176
     1
290
     0
176
     1
 90
       50
176
     1
 40
0.0
176
     1
 40
1.0
176
     1
 90
        0
176
     1
 62
    18
420
        0
176
     1
 90
       50
176
     1
 90
        3
176
     1
 62
     5
420
      255
176
     1
290
     0
176
     1
 90
       50
176
     1
 90
       50
176
     1
 90
       50
176
     1
290
     0
176
     1
 90
       50
176
     1
 62
   256
176
     0
 40
1.0
176
     0
 90
        2
176
     1
  1
strokes_ogs.tif
176
     1
290
     0
176
     1
 40
1.0
176
     1
 40
1.0
176
     1
  0
VISUALSTYLE
  5
2C
102
{ACAD_REACTORS
330
2A
102
}
330
2A
100
AcDbVisualStyle
  2
FlatWithEdges
 70
     1
177
     3
291
     1
 70
    58
 90
        2
176
     1
 90
        1
176
     1
 90
        1
176
     1
 90
        2
176
     1
 40
0.6
176
     1
 40
30.0
176
     1
 62
     7
420
 16777215
176
     1
 90
        1
176
     1
 90
        0
176
     1
 62
     7
176
     1
 62
   257
176
     1
 90
        1
176
     1
 90
        1
176
     1
 40
1.0
176
     1
 90
        0
176
     1
 62
   257
176
     1
 40
1.0
176
     1
 90
        1
176
     1
 90
        6
176
     1
 90
        2
176
     1
 62
     7
176
     1
 90
        5
176
     1
 90
        0
176
     1
 90
        0
176
     1
290
     0
176
     1
 90
       13
176
     1
 40
0.0
176
     1
 90
        0
176
     1
290
     0
176
     1
290
     1
176
     1
290
     1
176
     1
290
     0
176
     1
290
     0
176
     1
290
     0
176
     1
290
     0
176
     1
290
     0
176
     1
290
     0
176
     1
 90
       50
176
     1
 40
0.0
176
     1
 40
1.0
176
     1
 90
        0
176
     1
 62
    18
420
        0
176
     1
 90
       50
176
     1
 90
        3
176
     1
 62
     5
420
      255
176
     1
290
     0
176
     1
 90
       50
176
     1
 90
       50
176
     1
 90
       50
176
     1
290
     0
176
     1
 90
       50
176
     1
 62
   256
176
     0
 40
1.0
176
     0
 90
        2
176
     1
  1
strokes_ogs.tif
176
     1
290
     0
176
     1
 40
1.0
176
     1
 40
1.0
176
     1
  0
VISUALSTYLE
  5
2D
102
{ACAD_REACTORS
330
2A
102
}
330
2A
100
AcDbVisualStyle
  2
Gouraud
 70
     2
177
     3
291
     1
 70
    58
 90
        2
176
     1
 90
        2
176
     1
 90
        1
176
     1
 90
        2
176
     1
 40
0.6
176
     1
 40
30.0
176
     1
 62
     7
420
 16777215
176
     1
 90
        0
176
     1
 90
        0
176
     1
 62
     7
176
     1
 62
   257
176
     1
 90
        1
176
     1
 90
        1
176
     1
 40
1.0
176
     1
 90
        0
176
     1
 62
     7
176
     1
 40
1.0
176
     1
 90
        1
176
     1
 90
        6
176
     1
 90
        2
176
     1
 62
     7
176
     1
 90
        5
176
     1
 90
        0
176
     1
 90
        0
176
     1
290
     0
176
     1
 90
       13
176
     1
 40
0.0
176
     1
 90
        0
176
     1
290
     0
176
     1
290
     1
176
     1
290
     1
176
     1
290
     0
176
     1
290
     0
176
     1
290
     0
176
     1
290
     0
176
     1
290
     0
176
     1
290
     0
176
     1
 90
       50
176
     1
 40
0.0
176
     1
 40
1.0
176
     1
 90
        0
176
     1
 62
    18
420
        0
176
     1
 90
       50
176
     1
 90
        3
176
     1
 62
     5
420
      255
176
     1
290
     0
176
     1
 90
       50
176
     1
 90
       50
176
     1
 90
       50
176
     1
290
     0
176
     1
 90
       50
176
     1
 62
   256
176
     0
 40
1.0
176
     0
 90
        2
176
     1
  1
strokes_ogs.tif
176
     1
290
     0
176
     1
 40
1.0
176
     1
 40
1.0
176
     1
  0
VISUALSTYLE
  5
2E
102
{ACAD_REACTORS
330
2A
102
}
330
2A
100
AcDbVisualStyle
  2
GouraudWithEdges
 70
     3
177
     3
291
     1
 70
    58
 90
        2
176
     1
 90
        2
176
     1
 90
        1
176
     1
 90
        2
176
     1
 40
0.6
176
     1
 40
30.0
176
     1
 62
     7
420
 16777215
176
     1
 90
        1
176
     1
 90
        0
176
     1
 62
     7
176
     1
 62
   257
176
     1
 90
        1
176
     1
 90
        1
176
     1
 40
1.0
176
     1
 90
        0
176
     1
 62
   257
176
     1
 40
1.0
176
     1
 90
        1
176
     1
 90
        6
176
     1
 90
        2
176
     1
 62
     7
176
     1
 90
        5
176
     1
 90
        0
176
     1
 90
        0
176
     1
290
     0
176
     1
 90
       13
176
     1
 40
0.0
176
     1
 90
        0
176
     1
290
     0
176
     1
290
     1
176
     1
290
     1
176
     1
290
     0
176
     1
290
     0
176
     1
290
     0
176
     1
290
     0
176
     1
290
     0
176
     1
290
     0
176
     1
 90
       50
176
     1
 40
0.0
176
     1
 40
1.0
176
     1
 90
        0
176
     1
 62
    18
420
        0
176
     1
 90
       50
176
     1
 90
        3
176
     1
 62
     5
420
      255
176
     1
290
     0
176
     1
 90
       50
176
     1
 90
       50
176
     1
 90
       50
176
     1
290
     0
176
     1
 90
       50
176
     1
 62
   256
176
     0
 40
1.0
176
     0
 90
        2
176
     1
  1
strokes_ogs.tif
176
     1
290
     0
176
     1
 40
1.0
176
     1
 40
1.0
176
     1
  0
VISUALSTYLE
  5
31
102
{ACAD_REACTORS
330
2A
102
}
330
2A
100
AcDbVisualStyle
  2
Hidden
 70
     6
177
     3
291
     0
 70
    58
 90
        1
176
     1
 90
        2
176
     1
 90
        2
176
     1
 90
        0
176
     1
 40
0.6
176
     1
 40
30.0
176
     1
 62
     7
420
 16777215
176
     1
 90
        2
176
     1
 90
        2
176
     1
 62
     7
176
     1
 62
   257
176
     1
 90
        2
176
     1
 90
        1
176
     1
 40
40.0
176
     1
 90
        0
176
     1
 62
   257
176
     1
 40
1.0
176
     1
 90
        1
176
     1
 90
        6
176
     1
 90
        2
176
     1
 62
     7
176
     1
 90
        3
176
     1
 90
        0
176
     1
 90
        0
176
     1
290
     0
176
     1
 90
        1
176
     1
 40
0.0
176
     1
 90
        0
176
     1
290
     0
176
     1
290
     1
176
     1
290
     1
176
     1
290
     0
176
     1
290
     0
176
     1
290
     0
176
     1
290
     0
176
     1
290
     0
176
     1
290
     0
176
     1
 90
       50
176
     1
 40
0.0
176
     1
 40
1.0
176
     1
 90
        0
176
     1
 62
    18
420
        0
176
     1
 90
       50
176
     1
 90
        3
176
     1
 62
     5
420
      255
176
     1
290
     0
176
     1
 90
       50
176
     1
 90
       50
176
     1
 90
       50
176
     1
290
     0
176
     1
 90
       50
176
     1
 62
   256
176
     0
 40
1.0
176
     0
 90
        2
176
     1
  1
strokes_ogs.tif
176
     1
290
     0
176
     1
 40
1.0
176
     1
 40
1.0
176
     1
  0
VISUALSTYLE
  5
3B
102
{ACAD_REACTORS
330
2A
102
}
330
2A
100
AcDbVisualStyle
  2
JitterOff
 70
    20
177
     3
291
     1
 70
    58
 90
        2
176
     0
 90
        2
176
     0
 90
        0
176
     0
 90
        0
176
     0
 40
0.6
176
     0
 40
30.0
176
     0
 62
     7
420
 16777215
176
     0
 90
        1
176
     0
 90
        4
176
     0
 62
     7
176
     0
 62
   257
176
     0
 90
        1
176
     0
 90
        1
176
     0
 40
1.0
176
     0
 90
       10
176
     2
 62
     7
176
     0
 40
1.0
176
     0
 90
        1
176
     0
 90
        6
176
     0
 90
        2
176
     0
 62
     7
176
     0
 90
        5
176
     0
 90
        0
176
     0
 90
        0
176
     0
290
     0
176
     0
 90
        1
176
     0
 40
0.0
176
     0
 90
        0
176
     0
290
     0
176
     0
290
     1
176
     0
290
     1
176
     0
290
     0
176
     0
290
     0
176
     0
290
     0
176
     0
290
     0
176
     0
290
     0
176
     0
290
     0
176
     0
 90
       50
176
     0
 40
0.0
176
     0
 40
1.0
176
     0
 90
        0
176
     0
 62
    18
420
        0
176
     0
 90
       50
176
     0
 90
        3
176
     0
 62
     5
420
      255
176
     0
290
     0
176
     0
 90
       50
176
     0
 90
       50
176
     0
 90
       50
176
     0
290
     0
176
     0
 90
       50
176
     0
 62
   256
176
     0
 40
1.0
176
     0
 90
        2
176
     0
  1
strokes_ogs.tif
176
     0
290
     0
176
     0
 40
1.0
176
     0
 40
1.0
176
     0
  0
VISUALSTYLE
  5
38
102
{ACAD_REACTORS
330
2A
102
}
330
2A
100
AcDbVisualStyle
  2
Linepattern
 70
    14
177
     3
291
     1
 70
    58
 90
        2
176
     1
 90
        2
176
     1
 90
        0
176
     1
 90
        0
176
     1
 40
0.6
176
     1
 40
30.0
176
     1
 62
     7
420
 16777215
176
     1
 90
        1
176
     1
 90
        4
176
     1
 62
     7
176
     1
 62
   257
176
     1
 90
        7
176
     1
 90
        7
176
     1
 40
1.0
176
     1
 90
        8
176
     1
 62
     7
176
     1
 40
1.0
176
     1
 90
        1
176
     1
 90
        6
176
     1
 90
        2
176
     1
 62
     7
176
     1
 90
        5
176
     1
 90
        0
176
     1
 90
        0
176
     1
290
     0
176
     1
 90
        1
176
     1
 40
0.0
176
     1
 90
        0
176
     1
290
     0
176
     1
290
     1
176
     1
290
     1
176
     1
290
     0
176
     1
290
     0
176
     1
290
     0
176
     1
290
     0
176
     1
290
     0
176
     1
290
     0
176
     1
 90
       50
176
     1
 40
0.0
176
     1
 40
1.0
176
     1
 90
        0
176
     1
 62
    18
420
        0
176
     1
 90
       50
176
     1
 90
        3
176
     1
 62
     5
420
      255
176
     1
290
     0
176
     1
 90
       50
176
     1
 90
       50
176
     1
 90
       50
176
     1
290
     0
176
     1
 90
       50
176
     1
 62
   256
176
     0
 40
1.0
176
     0
 90
        2
176
     1
  1
strokes_ogs.tif
176
     1
290
     0
176
     1
 40
1.0
176
     1
 40
1.0
176
     1
  0
VISUALSTYLE
  5
3C
102
{ACAD_REACTORS
330
2A
102
}
330
2A
100
AcDbVisualStyle
  2
OverhangOff
 70
    21
177
     3
291
     1
 70
    58
 90
        2
176
     0
 90
        2
176
     0
 90
        0
176
     0
 90
        0
176
     0
 40
0.6
176
     0
 40
30.0
176
     0
 62
     7
420
 16777215
176
     0
 90
        1
176
     0
 90
        4
176
     0
 62
     7
176
     0
 62
   257
176
     0
 90
        1
176
     0
 90
        1
176
     0
 40
1.0
176
     0
 90
        9
176
     2
 62
     7
176
     0
 40
1.0
176
     0
 90
        1
176
     0
 90
        6
176
     0
 90
        2
176
     0
 62
     7
176
     0
 90
        5
176
     0
 90
        0
176
     0
 90
        0
176
     0
290
     0
176
     0
 90
        1
176
     0
 40
0.0
176
     0
 90
        0
176
     0
290
     0
176
     0
290
     1
176
     0
290
     1
176
     0
290
     0
176
     0
290
     0
176
     0
290
     0
176
     0
290
     0
176
     0
290
     0
176
     0
290
     0
176
     0
 90
       50
176
     0
 40
0.0
176
     0
 40
1.0
176
     0
 90
        0
176
     0
 62
    18
420
        0
176
     0
 90
       50
176
     0
 90
        3
176
     0
 62
     5
420
      255
176
     0
290
     0
176
     0
 90
       50
176
     0
 90
       50
176
     0
 90
       50
176
     0
290
     0
176
     0
 90
       50
176
     0
 62
   256
176
     0
 40
1.0
176
     0
 90
        2
176
     0
  1
strokes_ogs.tif
176
     0
290
     0
176
     0
 40
1.0
176
     0
 40
1.0
176
     0
  0
VISUALSTYLE
  5
33
102
{ACAD_REACTORS
330
2A
102
}
330
2A
100
AcDbVisualStyle
  2
Realistic
 70
     8
177
     3
291
     0
 70
    58
 90
        2
176
     1
 90
        3
176
     1
 90
        0
176
     1
 90
        2
176
     1
 40
0.6
176
     1
 40
30.0
176
     1
 62
     7
420
 16777215
176
     1
 90
        0
176
     1
 90
        0
176
     1
 62
     7
176
     1
 62
   257
176
     1
 90
        1
176
     1
 90
        1
176
     1
 40
1.0
176
     1
 90
        8
176
     1
 62
   257
176
     1
 40
1.0
176
     1
 90
        1
176
     1
 90
        6
176
     1
 90
        2
176
     1
 62
     7
176
     1
 90
        3
176
     1
 90
        0
176
     1
 90
        0
176
     1
290
     0
176
     1
 90
       13
176
     1
 40
0.0
176
     1
 90
        0
176
     1
290
     0
176
     1
290
     1
176
     1
290
     1
176
     1
290
     0
176
     1
290
     0
176
     1
290
     0
176
     1
290
     0
176
     1
290
     0
176
     1
290
     0
176
     1
 90
       50
176
     1
 40
0.0
176
     1
 40
1.0
176
     1
 90
        0
176
     1
 62
    18
420
        0
176
     1
 90
       50
176
     1
 90
        3
176
     1
 62
     5
420
      255
176
     1
290
     0
176
     1
 90
       50
176
     1
 90
       50
176
     1
 90
       50
176
     1
290
     0
176
     1
 90
       50
176
     1
 62
   256
176
     0
 40
1.0
176
     0
 90
        2
176
     1
  1
strokes_ogs.tif
176
     1
290
     0
176
     1
 40
1.0
176
     1
 40
1.0
176
     1
  0
VISUALSTYLE
  5
42
102
{ACAD_REACTORS
330
2A
102
}
330
2A
100
AcDbVisualStyle
  2
Shaded
 70
    27
177
     3
291
     0
 70
    58
 90
        2
176
     1
 90
        2
176
     1
 90
        1
176
     1
 90
        2
176
     1
 40
0.6
176
     1
 40
30.0
176
     1
 62
     7
420
 16777215
176
     1
 90
        0
176
     1
 90
        4
176
     1
 62
     7
176
     1
 62
   257
176
     1
 90
        1
176
     1
 90
        1
176
     1
 40
1.0
176
     1
 90
        8
176
     1
 62
   257
176
     1
 40
1.0
176
     1
 90
        1
176
     1
 90
        6
176
     1
 90
        2
176
     1
 62
     8
420
  7895160
176
     1
 90
        3
176
     1
 90
        0
176
     1
 90
        0
176
     1
290
     0
176
     1
 90
        5
176
     1
 40
0.0
176
     1
 90
        0
176
     1
290
     0
176
     1
290
     1
176
     1
290
     1
176
     1
290
     0
176
     1
290
     0
176
     1
290
     0
176
     1
290
     0
176
     1
290
     0
176
     1
290
     0
176
     1
 90
       50
176
     1
 40
0.0
176
     1
 40
1.0
176
     1
 90
        0
176
     1
 62
    18
420
        0
176
     1
 90
       50
176
     1
 90
        3
176
     1
 62
     5
420
      255
176
     1
290
     0
176
     1
 90
       50
176
     1
 90
       50
176
     1
 90
       50
176
     1
290
     0
176
     1
 90
       50
176
     1
 62
   256
176
     0
 40
1.0
176
     0
 90
        2
176
     1
  1
strokes_ogs.tif
176
     1
290
     0
176
     1
 40
1.0
176
     1
 40
1.0
176
     1
  0
VISUALSTYLE
  5
41
102
{ACAD_REACTORS
330
2A
102
}
330
2A
100
AcDbVisualStyle
  2
Shaded with edges
 70
    26
177
     3
291
     0
 70
    58
 90
        2
176
     1
 90
        2
176
     1
 90
        1
176
     1
 90
        2
176
     1
 40
0.6
176
     1
 40
30.0
176
     1
 62
     7
420
 16777215
176
     1
 90
        1
176
     1
 90
       10
176
     1
 62
     7
176
     1
 62
   257
176
     1
 90
        2
176
     1
 90
        1
176
     1
 40
1.0
176
     1
 90
        8
176
     1
 62
   257
176
     1
 40
1.0
176
     1
 90
        1
176
     1
 90
        6
176
     1
 90
        2
176
     1
 62
     7
176
     1
 90
        3
176
     1
 90
        0
176
     1
 90
        0
176
     1
290
     0
176
     1
 90
        5
176
     1
 40
0.0
176
     1
 90
        0
176
     1
290
     0
176
     1
290
     1
176
     1
290
     1
176
     1
290
     0
176
     1
290
     0
176
     1
290
     0
176
     1
290
     0
176
     1
290
     0
176
     1
290
     0
176
     1
 90
       50
176
     1
 40
0.0
176
     1
 40
1.0
176
     1
 90
        0
176
     1
 62
    18
420
        0
176
     1
 90
       50
176
     1
 90
        3
176
     1
 62
     5
420
      255
176
     1
290
     0
176
     1
 90
       50
176
     1
 90
       50
176
     1
 90
       50
176
     1
290
     0
176
     1
 90
       50
176
     1
 62
   256
176
     0
 40
1.0
176
     0
 90
        2
176
     1
  1
strokes_ogs.tif
176
     1
290
     0
176
     1
 40
1.0
176
     1
 40
1.0
176
     1
  0
VISUALSTYLE
  5
3E
102
{ACAD_REACTORS
330
2A
102
}
330
2A
100
AcDbVisualStyle
  2
Shades of Gray
 70
    23
177
     3
291
     0
 70
    58
 90
        2
176
     1
 90
        2
176
     1
 90
        3
176
     1
 90
        0
176
     1
 40
0.6
176
     1
 40
30.0
176
     1
 62
     7
420
 16777215
176
     1
 90
        2
176
     1
 90
        2
176
     1
 62
     7
176
     1
 62
     7
176
     1
 90
        1
176
     1
 90
        1
176
     1
 40
40.0
176
     1
 90
        8
176
     1
 62
     7
176
     1
 40
1.0
176
     1
 90
        1
176
     1
 90
        6
176
     1
 90
        2
176
     1
 62
     7
176
     1
 90
        3
176
     1
 90
        0
176
     1
 90
        0
176
     1
290
     0
176
     1
 90
        1
176
     1
 40
0.0
176
     1
 90
        0
176
     1
290
     0
176
     1
290
     1
176
     1
290
     1
176
     1
290
     0
176
     1
290
     0
176
     1
290
     0
176
     1
290
     0
176
     1
290
     0
176
     1
290
     0
176
     1
 90
       50
176
     1
 40
0.0
176
     1
 40
1.0
176
     1
 90
        0
176
     1
 62
    18
420
        0
176
     1
 90
       50
176
     1
 90
        3
176
     1
 62
     5
420
      255
176
     1
290
     0
176
     1
 90
       50
176
     1
 90
       50
176
     1
 90
       50
176
     1
290
     0
176
     1
 90
       50
176
     1
 62
   256
176
     0
 40
1.0
176
     0
 90
        2
176
     1
  1
strokes_ogs.tif
176
     1
290
     0
176
     1
 40
1.0
176
     1
 40
1.0
176
     1
  0
VISUALSTYLE
  5
3F
102
{ACAD_REACTORS
330
2A
102
}
330
2A
100
AcDbVisualStyle
  2
Sketchy
 70
    24
177
     3
291
     0
 70
    58
 90
        1
176
     1
 90
        2
176
     1
 90
        2
176
     1
 90
        0
176
     1
 40
0.6
176
     1
 40
30.0
176
     1
 62
     7
420
 16777215
176
     1
 90
        2
176
     1
 90
        2
176
     1
 62
     7
176
     1
 62
     7
176
     1
 90
        1
176
     1
 90
        1
176
     1
 40
40.0
176
     1
 90
       11
176
     1
 62
     7
176
     1
 40
1.0
176
     1
 90
        1
176
     1
 90
        6
176
     1
 90
        2
176
     1
 62
     7
176
     1
 90
        6
176
     1
 90
        0
176
     1
 90
        0
176
     1
290
     0
176
     1
 90
        1
176
     1
 40
0.0
176
     1
 90
        0
176
     1
290
     0
176
     1
290
     1
176
     1
290
     1
176
     1
290
     0
176
     1
290
     0
176
     1
290
     0
176
     1
290
     0
176
     1
290
     0
176
     1
290
     0
176
     1
 90
       50
176
     1
 40
0.0
176
     1
 40
1.0
176
     1
 90
        0
176
     1
 62
    18
420
        0
176
     1
 90
       50
176
     1
 90
        3
176
     1
 62
     5
420
      255
176
     1
290
     0
176
     1
 90
       50
176
     1
 90
       50
176
     1
 90
       50
176
     1
290
     0
176
     1
 90
       50
176
     1
 62
   256
176
     0
 40
1.0
176
     0
 90
        2
176
     1
  1
strokes_ogs.tif
176
     1
290
     0
176
     1
 40
1.0
176
     1
 40
1.0
176
     1
  0
VISUALSTYLE
  5
37
102
{ACAD_REACTORS
330
2A
102
}
330
2A
100
AcDbVisualStyle
  2
Thicken
 70
    13
177
     3
291
     1
 70
    58
 90
        2
176
     1
 90
        2
176
     1
 90
        0
176
     1
 90
        0
176
     1
 40
0.6
176
     1
 40
30.0
176
     1
 62
     7
420
 16777215
176
     1
 90
        1
176
     1
 90
        4
176
     1
 62
     7
176
     1
 62
   257
176
     1
 90
        1
176
     1
 90
        1
176
     1
 40
1.0
176
     1
 90
       12
176
     1
 62
     7
176
     1
 40
1.0
176
     1
 90
        1
176
     1
 90
        6
176
     1
 90
        2
176
     1
 62
     7
176
     1
 90
        5
176
     1
 90
        0
176
     1
 90
        0
176
     1
290
     0
176
     1
 90
        1
176
     1
 40
0.0
176
     1
 90
        0
176
     1
290
     0
176
     1
290
     1
176
     1
290
     1
176
     1
290
     0
176
     1
290
     0
176
     1
290
     0
176
     1
290
     0
176
     1
290
     0
176
     1
290
     0
176
     1
 90
       50
176
     1
 40
0.0
176
     1
 40
1.0
176
     1
 90
        0
176
     1
 62
    18
420
        0
176
     1
 90
       50
176
     1
 90
        3
176
     1
 62
     5
420
      255
176
     1
290
     0
176
     1
 90
       50
176
     1
 90
       50
176
     1
 90
       50
176
     1
290
     0
176
     1
 90
       50
176
     1
 62
   256
176
     0
 40
1.0
176
     0
 90
        2
176
     1
  1
strokes_ogs.tif
176
     1
290
     0
176
     1
 40
1.0
176
     1
 40
1.0
176
     1
  0
VISUALSTYLE
  5
30
102
{ACAD_REACTORS
330
2A
102
}
330
2A
100
AcDbVisualStyle
  2
Wireframe
 70
     5
177
     3
291
     0
 70
    58
 90
        0
176
     1
 90
        2
176
     1
 90
        0
176
     1
 90
        0
176
     1
 40
0.6
176
     1
 40
30.0
176
     1
 62
     7
420
 16777215
176
     1
 90
        1
176
     1
 90
        4
176
     1
 62
     7
176
     1
 62
   257
176
     1
 90
        1
176
     1
 90
        1
176
     1
 40
1.0
176
     1
 90
        0
176
     1
 62
   257
176
     1
 40
1.0
176
     1
 90
        1
176
     1
 90
        6
176
     1
 90
        2
176
     1
 62
     7
176
     1
 90
        3
176
     1
 90
        0
176
     1
 90
        0
176
     1
290
     0
176
     1
 90
        1
176
     1
 40
0.0
176
     1
 90
        0
176
     1
290
     0
176
     1
290
     1
176
     1
290
     1
176
     1
290
     0
176
     1
290
     0
176
     1
290
     0
176
     1
290
     0
176
     1
290
     0
176
     1
290
     0
176
     1
 90
       50
176
     1
 40
0.0
176
     1
 40
1.0
176
     1
 90
        0
176
     1
 62
    18
420
        0
176
     1
 90
       50
176
     1
 90
        3
176
     1
 62
     5
420
      255
176
     1
290
     0
176
     1
 90
       50
176
     1
 90
       50
176
     1
 90
       50
176
     1
290
     0
176
     1
 90
       50
176
     1
 62
   256
176
     0
 40
1.0
176
     0
 90
        2
176
     1
  1
strokes_ogs.tif
176
     1
290
     0
176
     1
 40
1.0
176
     1
 40
1.0
176
     1
  0
VISUALSTYLE
  5
40
102
{ACAD_REACTORS
330
2A
102
}
330
2A
100
AcDbVisualStyle
  2
X-Ray
 70
    25
177
     3
291
     0
 70
    58
 90
        2
176
     1
 90
        2
176
     1
 90
        1
176
     1
 90
        1
176
     1
 40
0.5
176
     1
 40
30.0
176
     1
 62
     7
420
 16777215
176
     1
 90
        1
176
     1
 90
        0
176
     1
 62
     7
176
     1
 62
   257
176
     1
 90
        1
176
     1
 90
        1
176
     1
 40
1.0
176
     1
 90
        8
176
     1
 62
     7
176
     1
 40
1.0
176
     1
 90
        1
176
     1
 90
        6
176
     1
 90
        2
176
     1
 62
     7
176
     1
 90
        3
176
     1
 90
        0
176
     1
 90
        0
176
     1
290
     0
176
     1
 90
       13
176
     1
 40
0.0
176
     1
 90
        0
176
     1
290
     0
176
     1
290
     1
176
     1
290
     1
176
     1
290
     0
176
     1
290
     0
176
     1
290
     0
176
     1
290
     0
176
     1
290
     0
176
     1
290
     0
176
     1
 90
       50
176
     1
 40
0.0
176
     1
 40
1.0
176
     1
 90
        0
176
     1
 62
    18
420
        0
176
     1
 90
       50
176
     1
 90
        3
176
     1
 62
     5
420
      255
176
     1
290
     0
176
     1
 90
       50
176
     1
 90
       50
176
     1
 90
       50
176
     1
290
     0
176
     1
 90
       50
176
     1
 62
   256
176
     0
 40
1.0
176
     0
 90
        2
176
     1
  1
strokes_ogs.tif
176
     1
290
     0
176
     1
 40
1.0
176
     1
 40
1.0
176
     1
  0
DICTIONARYVAR
  5
28F
102
{ACAD_REACTORS
330
28E
102
}
330
28E
100
DictionaryVariables
280
     0
  1
1:1
  0
DICTIONARYVAR
  5
294
102
{ACAD_REACTORS
330
28E
102
}
330
28E
100
DictionaryVariables
280
     0
  1
Standard
  0
DICTIONARYVAR
  5
293
102
{ACAD_REACTORS
330
28E
102
}
330
28E
100
DictionaryVariables
280
     0
  1
Standard
  0
DICTIONARY
  5
290
330
6A
100
AcDbDictionary
280
     1
281
     1
  3
ACAD_ROUNDTRIP_2008_TABLESTYLE_CELLSTYLEMAP
360
291
  0
CELLSTYLEMAP
  5
291
102
{ACAD_REACTORS
330
290
102
}
330
290
100
AcDbCellStyleMap
 90
        3
300
CELLSTYLE
  1
TABLEFORMAT_BEGIN
 90
        5
170
     1
 91
        0
 92
    32768
 62
   257
 93
        1
300
CONTENTFORMAT
  1
CONTENTFORMAT_BEGIN
 90
        0
 91
        0
 92
        4
 93
        0
300

 40
0.0
140
1.0
 94
        5
 62
     0
340
11
144
6.0
309
CONTENTFORMAT_END
171
     1
301
MARGIN
  1
CELLMARGIN_BEGIN
 40
1.5
 40
1.5
 40
1.5
 40
1.5
 40
1.5
 40
1.5
309
CELLMARGIN_END
 94
        6
 95
        1
302
GRIDFORMAT
  1
GRIDFORMAT_BEGIN
 90
        0
 91
        1
 62
     0
 92
       -2
340
14
 93
        0
 40
0.045
309
GRIDFORMAT_END
 95
        2
302
GRIDFORMAT
  1
GRIDFORMAT_BEGIN
 90
        0
 91
        1
 62
     0
 92
       -2
340
14
 93
        0
 40
0.045
309
GRIDFORMAT_END
 95
        4
302
GRIDFORMAT
  1
GRIDFORMAT_BEGIN
 90
        0
 91
        1
 62
     0
 92
       -2
340
14
 93
        0
 40
0.045
309
GRIDFORMAT_END
 95
        8
302
GRIDFORMAT
  1
GRIDFORMAT_BEGIN
 90
        0
 91
        1
 62
     0
 92
       -2
340
14
 93
        0
 40
0.045
309
GRIDFORMAT_END
 95
       16
302
GRIDFORMAT
  1
GRIDFORMAT_BEGIN
 90
        0
 91
        1
 62
     0
 92
       -2
340
14
 93
        0
 40
0.045
309
GRIDFORMAT_END
 95
       32
302
GRIDFORMAT
  1
GRIDFORMAT_BEGIN
 90
        0
 91
        1
 62
     0
 92
       -2
340
14
 93
        0
 40
0.045
309
GRIDFORMAT_END
309
TABLEFORMAT_END
  1
CELLSTYLE_BEGIN
 90
        1
 91
        1
300
_TITLE
309
CELLSTYLE_END
300
CELLSTYLE
  1
TABLEFORMAT_BEGIN
 90
        5
170
     1
 91
        0
 92
        0
 62
   257
 93
        1
300
CONTENTFORMAT
  1
CONTENTFORMAT_BEGIN
 90
        0
 91
        0
 92
        4
 93
        0
300

 40
0.0
140
1.0
 94
        5
 62
     0
340
11
144
4.5
309
CONTENTFORMAT_END
171
     1
301
MARGIN
  1
CELLMARGIN_BEGIN
 40
1.5
 40
1.5
 40
1.5
 40
1.5
 40
1.5
 40
1.5
309
CELLMARGIN_END
 94
        6
 95
        1
302
GRIDFORMAT
  1
GRIDFORMAT_BEGIN
 90
        0
 91
        1
 62
     0
 92
       -2
340
14
 93
        0
 40
0.045
309
GRIDFORMAT_END
 95
        2
302
GRIDFORMAT
  1
GRIDFORMAT_BEGIN
 90
        0
 91
        1
 62
     0
 92
       -2
340
14
 93
        0
 40
0.045
309
GRIDFORMAT_END
 95
        4
302
GRIDFORMAT
  1
GRIDFORMAT_BEGIN
 90
        0
 91
        1
 62
     0
 92
       -2
340
14
 93
        0
 40
0.045
309
GRIDFORMAT_END
 95
        8
302
GRIDFORMAT
  1
GRIDFORMAT_BEGIN
 90
        0
 91
        1
 62
     0
 92
       -2
340
14
 93
        0
 40
0.045
309
GRIDFORMAT_END
 95
       16
302
GRIDFORMAT
  1
GRIDFORMAT_BEGIN
 90
        0
 91
        1
 62
     0
 92
       -2
340
14
 93
        0
 40
0.045
309
GRIDFORMAT_END
 95
       32
302
GRIDFORMAT
  1
GRIDFORMAT_BEGIN
 90
        0
 91
        1
 62
     0
 92
       -2
340
14
 93
        0
 40
0.045
309
GRIDFORMAT_END
309
TABLEFORMAT_END
  1
CELLSTYLE_BEGIN
 90
        2
 91
        1
300
_HEADER
309
CELLSTYLE_END
300
CELLSTYLE
  1
TABLEFORMAT_BEGIN
 90
        5
170
     1
 91
        0
 92
        0
 62
   257
 93
        1
300
CONTENTFORMAT
  1
CONTENTFORMAT_BEGIN
 90
        0
 91
        0
 92
        4
 93
        0
300

 40
0.0
140
1.0
 94
        2
 62
     0
340
11
144
4.5
309
CONTENTFORMAT_END
171
     1
301
MARGIN
  1
CELLMARGIN_BEGIN
 40
1.5
 40
1.5
 40
1.5
 40
1.5
 40
1.5
 40
1.5
309
CELLMARGIN_END
 94
        6
 95
        1
302
GRIDFORMAT
  1
GRIDFORMAT_BEGIN
 90
        0
 91
        1
 62
     0
 92
       -2
340
14
 93
        0
 40
0.045
309
GRIDFORMAT_END
 95
        2
302
GRIDFORMAT
  1
GRIDFORMAT_BEGIN
 90
        0
 91
        1
 62
     0
 92
       -2
340
14
 93
        0
 40
0.045
309
GRIDFORMAT_END
 95
        4
302
GRIDFORMAT
  1
GRIDFORMAT_BEGIN
 90
        0
 91
        1
 62
     0
 92
       -2
340
14
 93
        0
 40
0.045
309
GRIDFORMAT_END
 95
        8
302
GRIDFORMAT
  1
GRIDFORMAT_BEGIN
 90
        0
 91
        1
 62
     0
 92
       -2
340
14
 93
        0
 40
0.045
309
GRIDFORMAT_END
 95
       16
302
GRIDFORMAT
  1
GRIDFORMAT_BEGIN
 90
        0
 91
        1
 62
     0
 92
       -2
340
14
 93
        0
 40
0.045
309
GRIDFORMAT_END
 95
       32
302
GRIDFORMAT
  1
GRIDFORMAT_BEGIN
 90
        0
 91
        1
 62
     0
 92
       -2
340
14
 93
        0
 40
0.045
309
GRIDFORMAT_END
309
TABLEFORMAT_END
  1
CELLSTYLE_BEGIN
 90
        3
 91
        2
300
_DATA
309
CELLSTYLE_END
  0
ENDSEC
  0
EOF
